<?xml version="1.0" standalone="no"?>
<!DOCTYPE svg PUBLIC "-//W3C//DTD SVG 1.1//EN" "http://www.w3.org/Graphics/SVG/1.1/DTD/svg11.dtd" >
<svg xmlns="http://www.w3.org/2000/svg">
<metadata>
This is a custom SVG webfont generated by Font Squirrel.
Copyright   : Copyright  2010 ParaType Ltd All rights reserved
Designer    : AKorolkova OUmpeleva VYefimov
Foundry     : ParaType Ltd
Foundry URL : httpwwwparatypecom
</metadata>
<defs>
<font id="webfontNckRu2nu" horiz-adv-x="1157" >
<font-face units-per-em="2048" ascent="1593" descent="-455" />
<missing-glyph horiz-adv-x="552" />
<glyph unicode=" "  horiz-adv-x="552" />
<glyph unicode="&#x09;" horiz-adv-x="552" />
<glyph unicode="&#xa0;" horiz-adv-x="552" />
<glyph unicode="!" horiz-adv-x="704" d="M352 446l-102 398v569q20 12 61 17.5t86 5.5t85 -5.5t63 -17.5v-569l-103 -398h-90zM225 145q0 74 48.5 119t125.5 45q78 0 127 -45t49 -119t-49 -117.5t-127 -43.5t-126 43.5t-48 117.5z" />
<glyph unicode="&#x22;" horiz-adv-x="851" d="M452 1372q10 27 48 44.5t85 17.5q43 0 83 -15.5t50 -46.5l-94 -377h-78zM133 1372q10 27 48 44.5t85 17.5q43 0 83 -15.5t50 -46.5l-94 -377h-78z" />
<glyph unicode="#" d="M643 451h-254l-78 -332h-145l78 332h-166l39 131h157l64 270h-158l39 131h152l80 332h143l-78 -332h254l80 332h143l-80 -332h162l-45 -131h-149l-64 -270h156l-45 -131h-142l-77 -332h-144zM420 582h254l63 270h-254z" />
<glyph unicode="$" d="M504 -25q-61 0 -123 9.5t-115 24t-94 31.5t-61 36q4 80 21.5 158.5t33.5 123.5h86l104 -198q20 -16 54 -31.5t94 -19.5v518q-4 2 -9.5 3t-9.5 5l-47 20q-63 27 -122.5 65t-106.5 88t-76 117.5t-29 153.5q0 84 30 150.5t83 114t127 76t160 34.5v102h143v-100 q98 -4 177 -22.5t151 -49.5q0 -31 -5 -64.5t-13.5 -65t-18.5 -58.5t-18 -41h-84l-105 158q-16 4 -35.5 7t-48.5 3v-492l78 -32q61 -29 122.5 -65t110 -85t78 -114.5t29.5 -155.5q0 -162 -106.5 -266.5t-311.5 -130.5v-125h-143v118zM799 340q0 88 -49.5 140t-122.5 91v-452 q82 23 127 78t45 143zM358 1118q0 -86 47.5 -138t118.5 -91v430q-78 -10 -122 -62.5t-44 -138.5z" />
<glyph unicode="%" horiz-adv-x="1736" d="M1415 1464l99 -86l-1198 -1405l-97 88zM86 1110q0 80 28.5 143.5t81 109.5t124 70.5t159.5 24.5t160.5 -21.5t124 -64.5t80 -108.5t28.5 -153.5q0 -80 -28.5 -144.5t-80 -109.5t-124 -69.5t-160.5 -24.5t-159.5 21.5t-124 64.5t-81 108.5t-28.5 153.5zM332 1110 q0 -244 147 -244q72 0 109.5 54.5t37.5 189.5t-37.5 189.5t-109.5 54.5q-76 0 -111.5 -54.5t-35.5 -189.5zM864 326q0 80 28.5 143.5t81 109.5t124 70.5t159.5 24.5t160.5 -21.5t124 -64.5t80 -108.5t28.5 -153.5q0 -80 -28.5 -144.5t-80 -109.5t-124 -69.5t-160.5 -24.5 t-159.5 21.5t-124 64.5t-81 108.5t-28.5 153.5zM1110 326q0 -244 147 -244q72 0 109.5 54.5t37.5 189.5t-37.5 189.5t-109.5 54.5q-76 0 -111.5 -54.5t-35.5 -189.5z" />
<glyph unicode="&#x26;" horiz-adv-x="1835" d="M1083 238q-66 55 -133 126.5t-127.5 145.5t-109.5 143.5t-78 118.5q-59 -74 -86 -140.5t-27 -156.5q0 -76 24.5 -139.5t68.5 -109.5t103.5 -71.5t129.5 -25.5q61 0 125.5 26t109.5 83zM664 1192q0 -31 12 -68t31.5 -73.5t43 -71.5t46.5 -61q70 53 102.5 128.5t28.5 161.5 q-4 57 -36 97.5t-97 40.5q-68 0 -99.5 -47.5t-31.5 -106.5zM1384 0l-96 58q-55 34 -108 87q-63 -66 -178 -118t-263 -52q-137 0 -236.5 38t-163 98.5t-94 136.5t-30.5 153q0 94 36 173t87 140.5t109.5 105.5t101.5 69q-51 55 -88 133t-37 154q0 51 21.5 102t65.5 91 t108.5 64.5t150.5 24.5q147 0 239.5 -65.5t92.5 -188.5q0 -59 -20.5 -112.5t-54.5 -100.5t-78 -89t-93 -77q141 -195 387 -413q16 23 36.5 76t35 120.5t18.5 143t-12 143.5q-33 6 -57.5 18.5t-51.5 30.5v80h467v-80q-55 -35 -135 -49q-10 -88 -30.5 -174t-48 -162 t-58.5 -135t-61 -92q72 -63 145.5 -112.5t144.5 -90.5l105 -49v-80h-357z" />
<glyph unicode="'" horiz-adv-x="491" d="M133 1372q10 27 48 44.5t85 17.5q43 0 83 -15.5t50 -46.5l-94 -377h-78z" />
<glyph unicode="(" horiz-adv-x="768" d="M670 -430q-98 59 -199.5 138t-183.5 189.5t-133.5 257t-51.5 343.5q0 178 48.5 320.5t128 256t183 202.5t214.5 161l61 -64q-82 -88 -146.5 -177t-109.5 -193.5t-68.5 -227.5t-23.5 -278q0 -150 25.5 -275t71.5 -230.5t111 -193.5t140 -161z" />
<glyph unicode=")" horiz-adv-x="768" d="M31 -362q76 74 139 165t109.5 200.5t72 237.5t25.5 277q0 156 -23.5 278t-67.5 222t-108.5 186t-146.5 170l61 64q117 -68 220.5 -156t182 -200.5t125 -252t46.5 -311.5q0 -174 -42 -318.5t-117 -261t-179.5 -207.5t-229.5 -161z" />
<glyph unicode="*" horiz-adv-x="948" d="M119 1223q-12 16 -5 50t25.5 67.5t45 59t51.5 27.5l186 -217q0 -31 -27 -45zM242 879q-23 0 -48.5 25.5t-46 59t-31 68.5t0.5 53l276 54q29 -16 29 -43zM596 809q-8 -16 -42 -25.5t-73 -10.5t-73.5 7t-45.5 25l89 268q29 16 55 0zM829 1085q12 -23 5 -57.5t-24 -67 t-43 -56t-50 -23.5l-180 211q0 27 24 43zM721 1425q25 2 48.5 -19.5t39.5 -53t23.5 -67.5t1.5 -60l-275 -62q-25 18 -24 45zM362 1497q8 18 41 28.5t72 10.5t73 -9t44 -30l-88 -268q-27 -16 -53 0z" />
<glyph unicode="+" d="M117 786h379v402h163v-402h379v-163h-379v-414h-163v414h-379v163z" />
<glyph unicode="," horiz-adv-x="626" d="M109 -268q41 12 73.5 36.5t56 55.5t36 65.5t10.5 67.5q-29 37 -69 59.5t-85 36.5q-10 43 -3 86t27.5 80t48 62.5t58.5 31.5q43 -2 84 -19.5t74 -49t52.5 -80.5t19.5 -115q0 -63 -26 -128.5t-70 -122t-105.5 -98.5t-134.5 -58z" />
<glyph unicode="-" horiz-adv-x="847" d="M135 670h578v-185h-578v185z" />
<glyph unicode="." horiz-adv-x="606" d="M129 145q0 74 47 119t125 45t127 -45t49 -119t-49 -117.5t-127 -43.5t-125 43.5t-47 117.5z" />
<glyph unicode="/" horiz-adv-x="704" d="M651 1466l123 -51l-747 -1687l-121 53z" />
<glyph unicode="0" d="M47 717q0 184 40 322.5t110.5 231.5t168 140t212.5 47q246 0 389 -185.5t143 -555.5q0 -184 -40 -322.5t-112.5 -231.5t-173 -140.5t-219.5 -47.5q-125 0 -221 50.5t-162.5 145.5t-100.5 232.5t-34 313.5zM354 717q0 -147 9.5 -264t34 -198t64.5 -124t101 -43 q72 0 118 35t73.5 110.5t38 194.5t10.5 289q0 147 -8.5 264t-32 198t-67.5 124t-117 43q-66 0 -109 -35t-68.5 -111t-36 -195.5t-10.5 -287.5z" />
<glyph unicode="1" d="M954 0h-708v88q51 23 103 40t106 30v940l8 121q-57 -18 -118.5 -24.5t-127.5 -4.5l-10 76q109 29 236.5 78t236.5 114h70v-1300q51 -12 102 -29.5t102 -40.5v-88z" />
<glyph unicode="2" d="M289 979h-70l-28 72l-31 86l-30.5 89t-23.5 81q72 61 183.5 106t271.5 45q113 0 195 -28.5t136 -80t79.5 -119t25.5 -145.5q0 -125 -57 -236.5t-141 -208.5t-181 -180l-174 -151l-106 -71v-9l125 13h352l100 229h70l13.5 -114.5t13.5 -132t10 -127t4 -97.5h-938v131 l121 110q68 62 137.5 137t137 159t120.5 171t85 177t32 176q0 113 -60.5 183.5t-171.5 70.5q-35 0 -62.5 -4t-61.5 -15z" />
<glyph unicode="3" d="M526 109q47 0 92.5 21.5t81 60t57 92t21.5 114.5q0 70 -23.5 120t-61.5 83t-87 48.5t-98 15.5h-119v81l307 402l70 72v8l-111 -13h-309l-80 -208h-69q-10 43 -21.5 102t-21 118.5t-14.5 115t-5 92.5h893v-101l-354 -432l-88 -90v-4l69 14q96 -4 173 -35.5t129.5 -86 t80 -126t27.5 -157.5q0 -102 -44 -184t-118 -139.5t-172 -87.5t-207 -30q-61 0 -122.5 9.5t-116 26t-98.5 39t-74 48.5l75 213h60l34 -38l45 -50l46 -53l39 -45q20 -4 45.5 -10t68.5 -6z" />
<glyph unicode="4" d="M1051 0h-633v88q100 35 188 49v232h-606v92l784 997h111v-956h252v-133h-252v-232q80 -16 156 -49v-88zM606 938l21 143h-6l-78 -143l-297 -383l-82 -68l145 15h297v436z" />
<glyph unicode="5" d="M932 1546h69q0 -31 -2 -80t-8 -100t-14 -97t-16 -71h-562l-37 -293h170q111 0 201 -29.5t153.5 -86t98.5 -137.5t35 -185q0 -117 -44 -208t-120 -153.5t-178.5 -96.5t-220.5 -34q-119 0 -217.5 38t-157.5 85l86 203h59q14 -14 33 -37l39 -47l39 -49l33 -43 q20 -8 37.5 -12t46.5 -4q61 0 114.5 21.5t91 60t60 93t22.5 119.5q0 72 -27.5 126.5t-74.5 89t-110.5 52t-133.5 17.5l-178 -2l82 748h535z" />
<glyph unicode="6" d="M1098 440q0 -106 -40 -192t-107.5 -146.5t-159 -93.5t-193.5 -33q-127 0 -224.5 40t-163 112t-99 170t-33.5 215q0 193 67.5 352.5t182 282.5t267.5 205t325 118l30 -88q-111 -35 -205 -94t-166.5 -144t-118.5 -192.5t-59 -236.5q16 27 42 52.5t63 47t85 34.5t109 13 q84 0 157 -26.5t126 -80t84 -132.5t31 -183zM791 416q0 303 -203 303q-70 0 -119 -36t-72 -83q-6 -29 -9 -66.5t-3 -72.5q0 -70 12.5 -134.5t39 -114.5t68.5 -81t101 -31q51 0 86 26t56.5 69t32 100.5t10.5 120.5z" />
<glyph unicode="7" d="M240 985h-70q-10 43 -20.5 105.5t-19.5 126t-15 122t-6 95.5h958v-97q-111 -172 -186.5 -323.5t-127 -307t-85 -325.5t-58.5 -381h-291q74 297 191 565.5t276 540.5l76 98l-102 -10h-441z" />
<glyph unicode="8" d="M72 322q0 143 92 240t242 145q-123 70 -199 165t-76 220q0 80 32 146.5t91 115.5t144 76.5t192 27.5q98 0 179 -24.5t138.5 -67.5t88 -104.5t30.5 -135.5q0 -123 -82 -213t-207 -129q88 -47 152.5 -94t107.5 -98t64.5 -108.5t21.5 -125.5q0 -80 -33.5 -149.5t-98 -121.5 t-160 -82t-220.5 -30q-115 0 -208 27t-157.5 73t-99 109.5t-34.5 137.5zM793 299q0 70 -26 119t-68 89t-98 74l-118 70q-72 -55 -98.5 -131t-26.5 -147q0 -49 12.5 -98.5t40 -87t70.5 -62.5t107 -25q51 0 89 16.5t63.5 44t39 63.5t13.5 75zM410 1135q0 -98 68.5 -173 t176.5 -131q57 53 81 118t24 149q0 119 -48 177t-126 58q-92 0 -134 -57t-42 -141z" />
<glyph unicode="9" d="M78 987q0 104 37 190.5t103.5 149t158.5 97t205 34.5q119 0 213 -40t159.5 -111.5t99 -175t33.5 -228.5q0 -190 -57 -351t-161.5 -283t-251 -198.5t-322.5 -95.5l-47 88q236 61 362.5 221t159.5 394q-39 -51 -102.5 -84t-163.5 -33q-88 0 -165 26.5t-135.5 81t-92 134.5 t-33.5 184zM385 999q0 -59 13.5 -112t40 -94t65.5 -64.5t92 -23.5q61 0 108.5 23.5t71.5 64.5q4 27 6 65.5t2 75.5q0 80 -11 152.5t-35.5 127t-63.5 87t-96 32.5q-102 0 -147.5 -83t-45.5 -251z" />
<glyph unicode=":" horiz-adv-x="702" d="M225 878q0 74 47 119t125 45t127 -45t49 -119t-49 -117.5t-127 -43.5t-125 43.5t-47 117.5zM225 145q0 74 47 119t125 45t127 -45t49 -119t-49 -117.5t-127 -43.5t-125 43.5t-47 117.5z" />
<glyph unicode=";" horiz-adv-x="712" d="M229 878q0 74 47 119t125 45t127 -45t49 -119t-49 -117.5t-127 -43.5t-125 43.5t-47 117.5zM209 -268q41 12 73.5 36.5t56 55.5t36 65.5t10.5 67.5q-29 37 -69 59.5t-85 36.5q-10 43 -3 86t27.5 80t48 62.5t58.5 31.5q43 -2 84 -19.5t74 -49t52.5 -80.5t19.5 -115 q0 -63 -26 -128.5t-70 -122t-105.5 -98.5t-134.5 -58z" />
<glyph unicode="&#x37e;" horiz-adv-x="712" d="M229 878q0 74 47 119t125 45t127 -45t49 -119t-49 -117.5t-127 -43.5t-125 43.5t-47 117.5zM209 -268q41 12 73.5 36.5t56 55.5t36 65.5t10.5 67.5q-29 37 -69 59.5t-85 36.5q-10 43 -3 86t27.5 80t48 62.5t58.5 31.5q43 -2 84 -19.5t74 -49t52.5 -80.5t19.5 -115 q0 -63 -26 -128.5t-70 -122t-105.5 -98.5t-134.5 -58z" />
<glyph unicode="&#x3c;" d="M133 664v63l789 481l73 -133l-436 -262l-168 -70l166 -63l477 -281l-114 -188z" />
<glyph unicode="=" d="M117 961h921v-164h-921v164zM117 612h921v-163h-921v163z" />
<glyph unicode="&#x3e;" d="M1051 756v-64l-789 -481l-74 133l437 262l168 70l-166 63l-477 279l114 190z" />
<glyph unicode="?" horiz-adv-x="995" d="M276 1026h-69q-12 27 -26.5 67t-28 84t-23.5 90t-14 87q78 47 177 75.5t253 28.5q92 0 164.5 -25.5t125 -69.5t80 -105.5t27.5 -133.5q0 -92 -35 -157.5t-86 -115.5t-111.5 -92t-112.5 -90t-87 -107.5t-35 -145.5h-67q-29 94 -22 162.5t33.5 124t65.5 100.5t75 92 t61.5 100.5t25.5 122.5q0 39 -9 77t-30.5 66.5t-55.5 46t-83 17.5q-43 0 -76 -8t-49 -21zM291 145q0 74 47 119t125 45t127 -45t49 -119t-49 -117.5t-127 -43.5t-125 43.5t-47 117.5z" />
<glyph unicode="@" horiz-adv-x="2179" d="M1325 952q49 23 117.5 33t138.5 8l-100 -569q-25 -131 -22 -195.5t61 -64.5q47 0 107.5 30.5t113.5 93t90 158t37 222.5q0 156 -56.5 278.5t-156 206.5t-235.5 128t-294 44q-178 0 -326.5 -62.5t-255 -173t-166 -263t-59.5 -330.5q0 -182 60.5 -318.5t167 -228.5 t253 -138.5t318.5 -46.5q59 0 135 14.5t138 43.5l32 -117q-72 -41 -157.5 -57.5t-190.5 -16.5q-182 0 -347 53.5t-290 160t-198.5 266t-73.5 372.5q0 223 76.5 403.5t209 307.5t308.5 195.5t377 68.5q195 0 357.5 -54t279 -155.5t182 -248t65.5 -332.5q0 -143 -52 -261 t-136 -203t-190.5 -131t-215.5 -46q-61 0 -106 15t-73.5 52t-38 96.5t2.5 147.5h-8q-18 -55 -54 -111.5t-82 -100.5t-101.5 -71.5t-112.5 -27.5q-139 0 -210 90t-71 229q0 121 40 240t111 212t169 151.5t215 58.5q72 0 120 -13.5t97 -42.5zM1284 850q-23 16 -47.5 24.5 t-58.5 8.5q-70 0 -129.5 -53.5t-102.5 -135.5t-67.5 -177t-24.5 -177q0 -70 24.5 -110t84.5 -40q35 0 70.5 29t69.5 75t65.5 104.5t58.5 115.5z" />
<glyph unicode="A" horiz-adv-x="1492" d="M506 0h-506v78q33 20 71 35.5t74 23.5l529 1321h151l514 -1321q41 -8 82 -23.5t72 -35.5v-78h-641v78q39 18 84 34.5t86 24.5l-119 326h-454l-121 -326q94 -12 178 -59v-78zM498 596h362l-133 391l-39 176h-4l-45 -180z" />
<glyph unicode="B" horiz-adv-x="1329" d="M41 0v78q39 23 83 39t85 20v1159q-41 8 -86 23.5t-82 36.5v78h330q78 0 147.5 6t159.5 6q98 0 190.5 -14.5t164 -51.5t114.5 -103.5t43 -170.5q0 -66 -23.5 -122t-65.5 -99t-98.5 -72t-121.5 -41v-8q66 -8 132 -30.5t119.5 -65.5t87 -107.5t33.5 -152.5q0 -111 -49 -191 t-132 -131t-189.5 -74.5t-220.5 -23.5q-43 0 -95 2l-102 4l-99 4q-48 2 -81 2h-244zM659 121q129 0 203 76.5t74 203.5q0 78 -24.5 128.5t-67.5 80t-102.5 41t-129.5 11.5h-108v-527q29 -6 60.5 -10t94.5 -4zM569 795q35 0 70 3t66 7q80 33 129 101.5t49 156.5 q0 129 -67.5 189.5t-174.5 60.5q-45 0 -78 -2t-59 -6v-510h65z" />
<glyph unicode="C" horiz-adv-x="1335" d="M1106 430h84q8 -33 15 -79t12.5 -98t7.5 -103.5t2 -92.5q-72 -45 -179.5 -63.5t-220.5 -18.5q-170 0 -308 42t-235.5 133.5t-150.5 231.5t-53 337q0 195 58.5 335t156.5 230t228 132t274 42q135 0 244.5 -19.5t179.5 -52.5q0 -33 -3.5 -84t-10.5 -107t-16 -110.5 t-17 -91.5h-87l-112 310q-18 10 -59.5 16t-84.5 6q-84 0 -157.5 -34t-131 -107.5t-90 -189t-32.5 -277.5q0 -293 116.5 -450.5t317.5 -157.5q57 0 97 9t55 25z" />
<glyph unicode="D" horiz-adv-x="1507" d="M41 0v78q35 20 78 35.5t90 23.5v1159q-47 10 -91 25.5t-77 34.5v78h238q35 0 86 2t106 5l108 6q52 3 89 3q178 0 318 -47t237.5 -137t149.5 -223.5t52 -307.5q0 -170 -49 -309t-147.5 -237.5t-249 -152.5t-352.5 -54q-27 0 -72 3t-96 6l-103 6q-51 3 -90 3h-225z M641 1317q-37 0 -74 -2t-63 -6v-1186q8 -2 28 -3l42 -2l42 -2q20 -1 31 -1q119 0 202 49t136 133t77.5 196.5t24.5 239.5q0 113 -25.5 217.5t-78.5 186.5t-138 131t-204 49z" />
<glyph unicode="E" horiz-adv-x="1236" d="M1118 1434q-4 -92 -14 -190.5t-27 -184.5h-84l-94 241h-383v-501h250l90 157h66q10 -100 10 -223t-10 -229h-66l-90 162h-250v-533h399l109 260h84q8 -39 16.5 -88t13.5 -101t8 -105.5t3 -98.5h-1108v78q35 18 78 34.5t90 24.5v1159q-41 8 -87 23.5t-81 36.5v78h1077z " />
<glyph unicode="F" horiz-adv-x="1177" d="M496 137q94 -12 178 -59v-78h-633v78q33 18 69.5 33.5t77.5 25.5v1159q-47 10 -82.5 26.5t-64.5 33.5v78h1071q0 -41 -4 -89.5t-9 -98.5t-12.5 -98t-15.5 -89h-84l-94 241h-397v-538h280l92 158h62q8 -53 11 -112.5t3 -119.5q-2 -61 -5 -118.5t-9 -102.5h-62l-92 162 h-280v-492z" />
<glyph unicode="G" horiz-adv-x="1452" d="M1303 90q-41 -20 -100.5 -40.5t-125 -37t-131 -27t-117.5 -10.5q-176 0 -314 46.5t-235.5 139.5t-148.5 232t-51 324q0 201 62.5 341t166 229t234.5 130t268 41q135 0 254 -18.5t188 -53.5q0 -31 -3 -78.5t-9 -103t-15 -111t-22 -100.5h-84l-114 312q-23 10 -68 15t-90 5 q-84 0 -162 -32.5t-137.5 -105.5t-94 -188.5t-34.5 -281.5q0 -135 31.5 -247t89 -191.5t137.5 -124.5t176 -45q31 0 63.5 5t61.5 13t50.5 18.5t29.5 18.5v385q-53 4 -100.5 20.5t-88.5 38.5v78h560v-78q-18 -18 -49 -33.5t-78 -25.5v-459z" />
<glyph unicode="H" horiz-adv-x="1574" d="M662 0h-621v78q35 18 81 34.5t87 24.5v1159q-49 8 -94 24.5t-74 35.5v78h621v-78q-31 -20 -69 -36.5t-77 -23.5v-495h543v495q-45 8 -81 24.5t-65 35.5v78h621v-78q-35 -23 -80 -37t-88 -23v-1159q47 -8 91 -24.5t77 -34.5v-78h-621v78q31 18 68 34.5t78 24.5v531h-543 v-531q41 -8 76 -22.5t70 -36.5v-78z" />
<glyph unicode="I" horiz-adv-x="761" d="M700 0h-639v78q82 45 166 59v1159q-41 6 -86 22.5t-80 37.5v78h639v-78q-37 -23 -81 -38t-84 -22v-1159q41 -8 85 -22.5t80 -36.5v-78z" />
<glyph unicode="J" horiz-adv-x="747" d="M55 1434h631v-78q-33 -20 -74 -36.5t-82 -23.5v-1048q0 -168 -50 -275.5t-118.5 -170t-140 -91t-117.5 -39.5l-38 54q31 25 59.5 62.5t50 97t34.5 144.5t13 206v1060q-45 10 -89 23.5t-79 36.5v78z" />
<glyph unicode="K" horiz-adv-x="1454" d="M817 1434h549v-78q-35 -23 -80 -38t-82 -22l-389 -493l111 -149l135 -172l147 -180l148 -173l98 -59v-70h-356l-82 57q-49 61 -104 137l-107 155l-105 163l-96 160h-88v-535q45 -8 82 -24.5t64 -34.5v-78h-621v78q41 20 84 35.5t84 23.5v1159q-47 6 -91 22.5t-77 37.5v78 h621v-78q-27 -16 -65 -32.5t-81 -27.5v-520l121 29l330 491q-41 8 -81 25.5t-69 34.5v78z" />
<glyph unicode="L" horiz-adv-x="1193" d="M41 1434h672v-78q-43 -23 -95.5 -38t-101.5 -22v-1163h395l138 367h84q8 -47 15 -110.5t11 -133.5t6 -137q1 -34 1 -63.5t-1 -55.5h-1124v78q47 25 89 39t79 20v1159q-100 16 -168 60v78z" />
<glyph unicode="M" horiz-adv-x="1904" d="M1862 0h-613v78q41 20 80 34.5t84 24.5v856l10 240h-16l-68 -219l-395 -1014h-94l-393 1006l-74 239h-18l2 -260v-840q39 -8 86 -26.5t88 -40.5v-78h-500v78l81 39q48 23 91 30v1149q-41 8 -87 22.5t-81 37.5v78h555l313 -834l60 -197h2l61 201l320 830h508v-78 q-35 -20 -75 -35.5t-81 -24.5v-1161q43 -8 83 -24.5t71 -32.5v-78z" />
<glyph unicode="N" horiz-adv-x="1552" d="M1004 1434h507v-78q-39 -31 -86 -54.5t-88 -35.5v-1291h-174l-723 1045l-82 158h-6l19 -164v-854q41 -10 91 -34t85 -48v-78h-506v78q37 25 81 46t91 36v1118q-41 16 -82 36.5t-74 43.5v76h443l587 -852l95 -176h8l-10 176v684q-49 16 -95.5 39.5t-80.5 50.5v78z" />
<glyph unicode="O" horiz-adv-x="1544" d="M80 717q0 160 45 296t133 235.5t217 154.5t297 55t297 -55t216 -154.5t132 -235.5t45 -296t-45 -296t-132 -235.5t-216 -155t-297 -55.5t-297 55.5t-217 155t-133 235.5t-45 296zM428 717q0 -131 20.5 -243t64.5 -192.5t112.5 -126.5t165.5 -46q88 0 149 46t100 126.5 t56.5 192.5t17.5 243t-19.5 242.5t-61.5 192.5t-110.5 127t-166.5 46q-94 0 -157.5 -46t-101.5 -127t-53.5 -192.5t-15.5 -242.5z" />
<glyph unicode="P" horiz-adv-x="1310" d="M516 137q55 -8 109.5 -23.5t97.5 -35.5v-78h-682v78q39 23 83 37t85 22v1159q-47 8 -90 23.5t-78 36.5v78h258q82 0 187.5 8t193.5 8q109 0 212 -21.5t184 -72.5t130 -136t49 -212q0 -121 -48 -209t-128 -145.5t-184 -85t-215 -27.5h-33q-23 0 -48 1l-49 2q-24 1 -34 3 v-410zM627 1317q-41 0 -64.5 -3t-46.5 -9v-623q18 -6 55 -7t60 -1q55 0 106 18.5t91 57t65 100t25 147.5q0 164 -80 242t-211 78z" />
<glyph unicode="Q" horiz-adv-x="1544" d="M1585 -229q-37 -39 -79 -75t-88 -64.5t-97 -45t-107 -16.5q-94 0 -189 34t-198.5 78t-217 84.5t-247.5 57.5l52 90q66 12 129 12q32 0 64 -3q95 -9 188.5 -30.5t186.5 -48t187 -43.5q89 -15 181 -15h12q98 1 203 36zM80 717q0 160 45 296t133 235.5t217 154.5t297 55 t297 -55t216 -154.5t132 -235.5t45 -296t-45 -296t-132 -235.5t-216 -155t-297 -55.5t-297 55.5t-217 155t-133 235.5t-45 296zM428 717q0 -131 20.5 -243t64.5 -192.5t112.5 -126.5t165.5 -46q88 0 149 46t100 126.5t56.5 192.5t17.5 243t-19.5 242.5t-61.5 192.5 t-110.5 127t-166.5 46q-94 0 -157.5 -46t-101.5 -127t-53.5 -192.5t-15.5 -242.5z" />
<glyph unicode="R" horiz-adv-x="1427" d="M516 137q47 -10 84 -26l72 -33v-78h-631v78q45 25 86 38t82 21v1159q-102 23 -168 60v78h217q41 0 93 2t110 5l117 6q59 3 114 3q113 0 208 -25.5t164 -77t106.5 -128t37.5 -179.5q0 -147 -71.5 -241t-196.5 -142l174 -263q92 -134 195 -259l98 -65v-70h-342l-88 68 q-94 113 -167 261t-128 292h-166v-484zM618 1317q-63 0 -102 -12v-572h121q104 0 178 75t74 222q0 76 -20.5 130t-57.5 89t-86.5 51.5t-106.5 16.5z" />
<glyph unicode="S" horiz-adv-x="1142" d="M322 170q23 -23 63.5 -42t108.5 -19q113 0 187.5 58t74.5 163q0 76 -48.5 127t-122 94t-157.5 85t-157.5 99.5t-122 136t-48.5 195.5q0 100 37 174t101.5 122t152.5 71.5t191 23.5q125 0 232.5 -17.5t193.5 -54.5q-2 -41 -7.5 -94t-13.5 -105t-17 -98.5t-18 -76.5h-84 l-94 280q-25 12 -73 22.5t-99 10.5q-86 0 -145.5 -45t-59.5 -131q0 -78 49.5 -132t123 -99.5t160.5 -89.5t161 -101t123 -134t49 -190q0 -205 -138.5 -316.5t-406.5 -111.5q-66 0 -132.5 8.5t-125.5 22.5t-105 30.5t-69 35.5q2 47 10 101t17.5 108.5t19.5 103.5t21 86h84z " />
<glyph unicode="T" horiz-adv-x="1366" d="M1034 0h-704v78q41 16 93 33.5t105 25.5v1163h-237l-131 -350h-84q-8 41 -16.5 104.5t-14.5 131t-10 134t-4 114.5h1304q0 -49 -4 -115t-10 -133.5t-14.5 -130t-16.5 -105.5h-86l-131 350h-237v-1163q53 -10 105 -24.5t93 -34.5v-78z" />
<glyph unicode="U" horiz-adv-x="1464" d="M14 1434h631v-78q-68 -43 -156 -60v-788q0 -100 23 -168t66 -110t103 -60t136 -18q68 0 124 19t98 62t64.5 113t22.5 172v768q-47 10 -97 28.5t-83 41.5v78h508v-78q-37 -27 -82 -43.5t-88 -26.5v-770q0 -262 -138 -398t-390 -136q-274 0 -424 122.5t-150 393.5v798 q-41 6 -86 21.5t-82 38.5v78z" />
<glyph unicode="V" horiz-adv-x="1503" d="M1155 1296q-49 10 -93 26.5t-79 33.5v78h520v-78q-25 -16 -64.5 -32.5t-82.5 -27.5l-471 -1296l-203 -25l-528 1321q-41 10 -82 25.5t-72 34.5v78h682v-78q-35 -16 -78 -32.5t-90 -27.5l287 -807l47 -192h4l45 197z" />
<glyph unicode="W" horiz-adv-x="2115" d="M1772 1296q-82 12 -173 60v78h517v-78q-35 -23 -74 -37t-76 -23l-362 -1296l-213 -25l-318 992l-309 -967l-215 -25l-399 1321q-43 8 -80 23.5t-70 36.5v78h664v-78q-35 -18 -79 -33.5t-91 -26.5l190 -723l43 -266h4l72 277l272 850h121l291 -840l69 -266h5l47 270z" />
<glyph unicode="X" horiz-adv-x="1490" d="M891 1434h508v-78l-65 -32.5t-74 -27.5l-365 -534l424 -625q47 -10 85 -25.5t73 -33.5v-78h-664v78q33 18 69 33.5t76 25.5l-290 451l-271 -453q43 -6 80 -20.5t72 -36.5v-78h-524v78q68 41 139 59l411 584l-385 575q-39 10 -73 27l-68 33v78h649v-78 q-25 -14 -61.5 -29.5t-85.5 -30.5l250 -411l246 411q-41 8 -82 25.5t-74 34.5v78z" />
<glyph unicode="Y" horiz-adv-x="1429" d="M928 1434h502v-78q-31 -18 -69 -35.5t-77 -24.5l-397 -696v-463q41 -4 81 -21.5t74 -37.5v-78h-630v78q35 18 77.5 34.5t90.5 24.5v461l-414 698q-47 8 -89 24.5t-77 35.5v78h672v-78q-29 -16 -66 -32.5t-86 -27.5l293 -548l279 548q-47 10 -90.5 26.5t-73.5 33.5v78z " />
<glyph unicode="Z" horiz-adv-x="1298" d="M1100 432h86q8 -43 15 -97t13.5 -112.5t9.5 -116t3 -106.5h-1155v133l794 1167h-508l-120 -292h-86q-10 45 -18.5 102t-14.5 115.5t-8 113t-2 95.5h1093v-134l-790 -1167h561z" />
<glyph unicode="[" horiz-adv-x="663" d="M147 1434h480v-113h-213v-1679h213v-113h-480v1905z" />
<glyph unicode="\" horiz-adv-x="782" d="M852 -213l-117 -61l-850 1679l119 59z" />
<glyph unicode="]" horiz-adv-x="663" d="M516 -471h-479v113h213v1679h-213v113h479v-1905z" />
<glyph unicode="^" horiz-adv-x="1019" d="M469 1456h94l348 -567h-245l-162 276l-37 109l-51 -111l-185 -274h-143z" />
<glyph unicode="_" horiz-adv-x="839" d="M0 -238h840v-163h-840v163z" />
<glyph unicode="`" horiz-adv-x="718" d="M596 1206l-92 -45l-381 297v60q12 12 53 23t87 17.5t87 7.5t56 -3z" />
<glyph unicode="a" horiz-adv-x="1140" d="M963 297q0 -45 1 -78t5 -69l141 -21v-72q-25 -12 -67 -24.5t-88 -23.5t-91 -18t-80 -11h-69q-20 47 -24.5 94t-6.5 114h-10q-10 -41 -35 -78.5t-62.5 -67.5t-89 -48.5t-114.5 -18.5q-68 0 -125.5 20.5t-100.5 57.5t-67.5 89.5t-24.5 117.5q0 92 35 151.5t109.5 97.5 t192.5 56.5t286 26.5q6 61 6 111q0 93 -20 147q-31 82 -134 82q-63 0 -116 -21l-97 -245h-90q-16 25 -31.5 56.5t-28.5 67t-22.5 72.5t-13.5 72q78 53 201 84t260 31q117 0 190.5 -26t115.5 -70t58.5 -103t16.5 -127q0 -123 -5 -222.5t-5 -203.5zM502 139q43 0 73.5 16.5 t52 39t33 49t17.5 47.5v205q-96 -2 -157.5 -12.5t-96.5 -34t-48.5 -59.5t-13.5 -87q0 -78 37 -121t103 -43z" />
<glyph unicode="b" horiz-adv-x="1204" d="M137 1370l-155 16v80q31 12 81 24.5t104 22t106.5 16.5t88.5 11h70v-709h4q41 102 125 160t199 58q180 0 280.5 -125t100.5 -379q0 -281 -148.5 -422t-435.5 -141q-51 0 -114.5 7t-123 17t-109.5 24.5t-73 28.5v1311zM627 885q-78 0 -125 -56.5t-70 -142.5v-543 q29 -20 71 -32.5t95 -12.5q117 0 171 104.5t54 327.5q0 162 -43.5 258.5t-152.5 96.5z" />
<glyph unicode="c" horiz-adv-x="991" d="M934 166q-14 -41 -47 -75t-79 -60.5t-104.5 -41t-121.5 -14.5q-135 0 -232.5 38t-161 109t-94.5 170t-31 220q0 260 142.5 398.5t404.5 138.5q100 0 184.5 -21.5t139.5 -50.5q-4 -35 -11.5 -77t-16.5 -84t-21.5 -82t-24.5 -66h-100l-86 243q-14 10 -30.5 15.5t-49.5 5.5 q-53 0 -92 -19.5t-66.5 -66.5t-41 -125t-13.5 -193q0 -84 18.5 -154.5t56.5 -122.5t95 -82t135 -30q72 0 125 20.5t90 49.5z" />
<glyph unicode="d" horiz-adv-x="1226" d="M762 203q-10 -45 -37 -86t-63.5 -73t-84 -50.5t-100.5 -18.5q-203 0 -308.5 128t-105.5 393q0 135 37 236.5t103.5 171t161 104t208.5 34.5q37 0 63 -2t47.5 -5t40.5 -10t44 -15v360l-156 16v80q29 12 79 22.5t106 19.5l108 18q53 8 88 14h70v-1395l135 -16v-72 q-29 -14 -74 -26.5t-94 -22.5t-95 -17t-77 -11h-70l-18 223h-8zM575 139q72 0 121 45t72 154v551q-27 16 -66.5 26.5t-99.5 10.5q-119 0 -170 -107.5t-51 -312.5q0 -166 45 -266.5t149 -100.5z" />
<glyph unicode="e" horiz-adv-x="1099" d="M995 172q-16 -35 -52 -70.5t-88 -63.5t-120.5 -45.5t-148.5 -17.5q-127 0 -225.5 38t-164 109t-99.5 169t-34 221q0 262 137.5 399.5t381.5 137.5q104 0 195 -29t151.5 -94.5t84.5 -171.5q11 -50 11 -111q0 -68 -14 -149h-629q2 -162 83 -258.5t238 -96.5 q68 0 140.5 20.5t113.5 53.5zM573 932q-41 0 -72.5 -14.5t-55 -52.5t-38 -102.5t-20.5 -162.5h330q4 49 4 90q0 96 -23 156q-33 86 -125 86z" />
<glyph unicode="f" horiz-adv-x="761" d="M657 1540q84 0 150.5 -15.5t101.5 -29.5q-6 -68 -26.5 -139.5t-36.5 -118.5h-70l-90 195q-53 0 -89 -11.5t-57.5 -44.5t-31.5 -93t-10 -157v-102h217v-129h-217v-766q106 -12 196 -49v-80h-626v80q63 37 135 49v766h-156v80q72 45 156 67v72q0 127 35.5 210t97 131 t144.5 66.5t177 18.5z" />
<glyph unicode="g" horiz-adv-x="1155" d="M541 1049q133 0 221 -28t133 -69q96 104 221 146q14 -10 28.5 -29.5t25 -42t16.5 -45.5t6 -37l-27 -49h-215q23 -29 42.5 -75t19.5 -109q0 -68 -29 -127.5t-87 -105.5t-147.5 -72.5t-207.5 -26.5q-35 0 -62.5 1t-48.5 5q-8 -12 -17.5 -29.5t-9.5 -33.5q0 -35 49.5 -55.5 t125.5 -37.5l162 -36q87 -20 163 -54.5t127 -88.5q53 -57 53 -148q0 -77 -41 -138q-43 -63 -117.5 -107t-176 -67.5t-216.5 -23.5q-135 0 -230 21.5t-154.5 58.5t-87 84t-27.5 98q0 57 22.5 98t63.5 72t95 51.5t120 36.5q-31 8 -59.5 20.5t-51 30t-37 41t-14.5 53.5 q0 27 16.5 52.5t43 47t57 39t61.5 29.5q-129 29 -204.5 112t-75.5 212q0 154 127 240t344 86zM799 -156q0 55 -34 89t-87 55.5t-119.5 37t-132.5 35.5q-53 -41 -75.5 -81.5t-22.5 -98.5q0 -94 64.5 -146t180.5 -52q115 0 170.5 47.5t55.5 113.5zM365 713q0 -106 35.5 -161.5 t140.5 -55.5q100 0 138 56t38 161q0 111 -39 165t-137 54q-102 0 -139 -53t-37 -166z" />
<glyph unicode="h" horiz-adv-x="1310" d="M1286 0h-543v80q25 14 51.5 26.5t61.5 22.5v414q0 176 -34 259t-132 83q-82 0 -139 -56.5t-82 -130.5v-569q33 -8 58.5 -18.5t54.5 -30.5v-80h-543v80q63 33 135 49v1241l-156 16v80q31 12 79 24.5t101.5 22t106.5 16.5t94 11h70v-723h2q20 47 55 89t79 74t95.5 50.5 t108.5 18.5q82 0 146.5 -19.5t107.5 -69t65.5 -132.5t22.5 -210v-489q35 -8 69.5 -18.5t65.5 -30.5v-80z" />
<glyph unicode="i" horiz-adv-x="679" d="M629 0h-566v80q31 16 64 27.5t72 21.5v750l-136 16v80q31 12 77 24.5t97.5 21.5t100.5 16l86 12h70v-920q41 -10 73.5 -21.5t61.5 -27.5v-80zM164 1360q0 72 49 112.5t127 40.5t127 -40.5t49 -112.5q0 -70 -49 -111t-127 -41t-127 41t-49 111z" />
<glyph unicode="j" horiz-adv-x="655" d="M199 879l-136 16v80q31 14 76 26.5t96.5 21.5t101.5 15t87 11h70v-961q0 -96 -24 -172t-61.5 -131t-83.5 -94t-90.5 -64.5t-81 -40t-57.5 -20.5l-41 61q25 12 49.5 40t46 77t35 124t13.5 181v830zM164 1360q0 72 49 112.5t127 40.5t127 -40.5t49 -112.5q0 -70 -49 -111 t-127 -41t-127 41t-49 111z" />
<glyph unicode="k" horiz-adv-x="1193" d="M659 1024h480v-80q-39 -16 -73 -28.5t-75 -20.5q-31 -41 -66 -81l-72 -77l-69 -70l-59 -61l72 -98l88 -122l99 -131q52 -67 106 -126l104 -49v-80h-346l-55 49q-47 63 -83 118.5t-65 106.5l-55 100l-53 95l-68 20v-360q35 -6 63.5 -18.5t61.5 -30.5v-80h-555v80 q68 33 135 49v1241l-156 16v80q29 12 78 24.5t104.5 22t108.5 16.5t90 11h70v-960h53q68 72 126 157l104 158q-27 8 -48.5 20.5t-44.5 28.5v80z" />
<glyph unicode="l" horiz-adv-x="679" d="M629 0h-566v80q68 33 136 49v1241l-156 16v80q27 12 74 24.5t101 22t108.5 16.5t97.5 11h70v-1411q68 -16 135 -49v-80z" />
<glyph unicode="m" horiz-adv-x="1892" d="M1217 0h-512v80q20 12 45.5 25.5t56.5 23.5v408q0 94 -5 159.5t-21.5 107.5t-45 61.5t-73.5 19.5q-66 0 -114 -50.5t-71 -132.5v-573q55 -16 103 -49v-80h-533v80q29 14 63.5 26.5t71.5 22.5v750l-135 16v80q33 14 81 26.5t99.5 21.5t99.5 15l81 11h69v-232h2 q33 96 116 164t200 68q49 0 96 -10.5t87 -38t68.5 -77t40.5 -126.5q37 113 123 182.5t209 69.5q76 0 134.5 -19.5t98.5 -69t60.5 -133.5t20.5 -213v-485q70 -12 135 -49v-80h-533v80q47 31 103 49v444q0 160 -30 236t-128 76q-74 0 -116 -55.5t-62 -147.5v-553 q35 -10 62.5 -22.5t52.5 -26.5v-80z" />
<glyph unicode="n" horiz-adv-x="1318" d="M1294 0h-542v80q27 14 52 25.5t60 23.5v481q0 129 -36.5 202t-131.5 73q-78 0 -134 -50.5t-85 -136.5v-569q33 -8 58.5 -19.5t54.5 -29.5v-80h-543v80q51 27 135 49v750l-135 16v80q27 12 70 23.5t93 21.5t102.5 17t95.5 12h69v-211h2q43 86 129 148.5t209 62.5 q80 0 143.5 -19.5t107.5 -69t67.5 -132.5t23.5 -210v-489q82 -14 135 -49v-80z" />
<glyph unicode="o" horiz-adv-x="1216" d="M63 512q0 125 38 224.5t109 169t171 106.5t227 37q143 0 246.5 -40t170.5 -111t97.5 -170t30.5 -216q0 -125 -37 -224.5t-107.5 -169t-172 -106.5t-228.5 -37q-139 0 -241.5 40t-170 111t-100.5 170t-33 216zM381 512q0 -92 11 -169t40 -130t78 -83t127 -30q45 0 82 21.5 t63.5 70t40 127t13.5 193.5q0 94 -11.5 170t-39 129t-74.5 83t-119 30q-53 0 -92 -21.5t-65.5 -70t-40 -127t-13.5 -193.5z" />
<glyph unicode="p" horiz-adv-x="1247" d="M608 -410h-565v80q70 33 135 49v1160l-135 16v80q33 14 81 26.5t99 21.5t100 15l80 11h70v-230h2q35 98 109.5 164t208.5 66q90 0 162.5 -30t122.5 -92.5t78 -159.5t28 -232q0 -129 -36 -233.5t-102.5 -176.5t-162 -111t-215.5 -39q-70 0 -110 9.5t-85 31.5v-297 q33 -4 65.5 -15t69.5 -34v-80zM674 885q-70 0 -124 -49.5t-77 -151.5v-545q33 -25 70 -36t96 -11q117 0 172 112.5t55 330.5q0 168 -41.5 259t-150.5 91z" />
<glyph unicode="q" horiz-adv-x="1206" d="M752 182q-14 -41 -41 -77.5t-64 -65.5t-85 -46.5t-107 -17.5q-186 0 -289 127t-103 383q0 281 151 419t427 138q57 0 120.5 -6t121 -15t103.5 -20.5t69 -21.5v-1260q68 -12 135 -49v-80h-565v80q63 33 135 49v463h-8zM557 139q154 0 203 197v561q-35 10 -74 19.5t-86 9.5 q-119 0 -169 -94.5t-50 -321.5q0 -178 37 -274.5t139 -96.5z" />
<glyph unicode="r" horiz-adv-x="882" d="M594 788q-25 -12 -57.5 -40.5t-59.5 -94.5v-524q41 -4 82 -15.5t82 -33.5v-80h-594v80q37 20 70 30.5t65 18.5v750l-135 16v80q33 14 81 26.5t99.5 21.5t99.5 15l81 11h69v-273h8q16 45 48 94.5t75 90t94 65.5q47 23 98 23h9q23 -29 39 -81.5t26 -99.5v-80h-280z" />
<glyph unicode="s" horiz-adv-x="925" d="M590 223q0 53 -38 92t-94.5 72t-123 65.5t-122.5 76.5t-94 103.5t-38 145.5q0 61 28.5 111.5t78 85.5t118 54.5t148.5 19.5q111 0 206 -17.5t166 -48.5q-8 -66 -32.5 -140.5t-47.5 -135.5h-69l-86 208q-25 10 -51.5 13.5t-59.5 3.5q-61 0 -93 -36t-32 -81q0 -51 38 -89 t94.5 -70.5t123 -65.5t122.5 -75t94 -99.5t38 -136.5q0 -141 -114.5 -222.5t-307.5 -81.5q-98 0 -202.5 20.5t-180.5 57.5q4 74 35 150t66 135h69l101 -223q23 -16 50.5 -19.5t51.5 -3.5q59 0 108.5 35t49.5 96z" />
<glyph unicode="t" horiz-adv-x="817" d="M16 975q78 49 164 69v166q12 12 42 23.5t64 20.5l66 18q33 8 54 12h69v-260h270v-129h-270v-530q0 -127 32 -176.5t105 -49.5q37 0 83 5.5t85 19.5l15 -68q-18 -18 -54 -38.5t-82.5 -39t-100.5 -31t-114 -12.5q-133 0 -198.5 70t-65.5 225v625h-164v80z" />
<glyph unicode="u" horiz-adv-x="1273" d="M145 406q0 129 6.5 239.5t6.5 233.5l-135 16v80q33 12 81 24.5t99 21.5t99 16l81 12h70q0 -154 -6.5 -302.5t-6.5 -291.5q0 -168 34 -242t126 -74q63 0 117.5 48.5t89.5 154.5v537l-133 16v80q31 12 77 24.5t96 21.5t99 16l86 12h70v-904l135 -16v-72q-29 -12 -72 -24.5 t-90 -23.5t-93 -18t-83 -11h-70l-14 243h-8q-10 -43 -37 -87t-69 -80t-99 -58.5t-127 -22.5q-78 0 -138.5 19.5t-103.5 69t-65.5 132.5t-22.5 210z" />
<glyph unicode="v" horiz-adv-x="1103" d="M498 -25l-410 920q-59 20 -108 49v80h538v-78l-54.5 -27.5t-62.5 -23.5l191 -524l39 -138h4l33 140l174 522q-33 8 -60.5 20.5t-52.5 28.5v80h395v-80q-20 -14 -50 -26.5t-66 -22.5l-359 -895z" />
<glyph unicode="w" horiz-adv-x="1605" d="M410 -25l-322 920q-29 10 -56.5 21.5t-51.5 27.5v80h518v-78q-29 -16 -57.5 -29.5t-59.5 -21.5l141 -524l27 -158h4l37 164l217 635l100 12l234 -649l43 -162h4l33 160l122 522q-23 4 -52 16.5t-60 32.5v80h395v-80q-43 -29 -117 -49l-284 -895l-193 -25l-176 506 l-39 170h-6l-47 -170l-164 -481z" />
<glyph unicode="x" horiz-adv-x="1146" d="M702 549l324 -420q53 -16 100 -49v-80h-522v78q23 16 46.5 29.5t47.5 21.5l-194 279l-189 -279q29 -10 50.5 -22.5t42.5 -26.5v-80h-388v80l53 29q24 12 54 20l303 377l-305 389q-29 10 -51.5 21.5t-40.5 27.5v80h514v-78l-44 -30q-19 -13 -48 -21l178 -254l170 254 q-35 10 -55.5 22.5t-36.5 26.5v80h379v-80q-20 -14 -45 -26.5t-62 -22.5z" />
<glyph unicode="y" horiz-adv-x="1081" d="M78 895q-31 8 -56.5 20.5t-52.5 28.5v80h539v-78q-43 -29 -117 -51l207 -514l35 -131h4l33 133l159 512q-61 12 -112 49v80h395v-80q-43 -29 -117 -49l-333 -895q-49 -131 -98.5 -214t-98.5 -132t-98.5 -68.5t-98.5 -25.5q-20 18 -36.5 45.5t-29 59.5t-20.5 64.5 t-10 61.5l27 49h250q18 29 31.5 61.5t31.5 98.5z" />
<glyph unicode="z" horiz-adv-x="1056" d="M928 379q23 -84 39 -186q13 -82 13 -156q0 -19 -1 -37h-913v80l583 827h-340l-90 -241h-69q-23 88 -37.5 186t-14.5 172h881v-80l-586 -827h355l110 262h70z" />
<glyph unicode="{" horiz-adv-x="724" d="M252 209q0 104 -43 163.5t-121 59.5v98q78 0 121 62.5t43 152.5v472q0 98 49 157.5t148 59.5h247v-113h-71q-55 0 -81 -28.5t-26 -94.5v-450q0 -68 -21.5 -115t-55 -77t-72.5 -45t-76 -19v-13q35 -4 75 -20.5t73.5 -49t55 -80.5t21.5 -114v-451q0 -63 24.5 -92.5 t84.5 -29.5h69v-113h-247q-92 0 -144.5 54.5t-52.5 160.5v465z" />
<glyph unicode="|" horiz-adv-x="481" d="M170 1434h143v-1700h-143v1700z" />
<glyph unicode="}" horiz-adv-x="724" d="M500 756q0 -104 43 -164t121 -60v-98q-78 0 -121 -62.5t-43 -152.5v-473q0 -98 -49.5 -157.5t-147.5 -59.5h-248v113h72q55 0 80.5 28.5t25.5 93.5v453q0 68 18.5 115t48.5 76.5t65.5 45t72.5 19.5v12q-35 4 -71.5 20.5t-66.5 49.5t-48.5 81t-18.5 114v448q0 63 -24.5 93 t-83.5 30h-70v113h250q92 0 143.5 -54.5t51.5 -160.5v-463z" />
<glyph unicode="~" horiz-adv-x="1085" d="M94 639q55 119 137 181.5t158 62.5q51 0 100.5 -21.5t96.5 -48.5t95 -48.5t99 -21.5q37 0 77 15.5t81 54.5l47 -61q-47 -98 -114.5 -146.5t-137.5 -48.5q-53 0 -103 21.5t-99.5 48t-98.5 48t-98 21.5q-45 0 -91 -24.5t-93 -87.5z" />
<glyph unicode="&#xa1;" horiz-adv-x="704" d="M352 586l103 -398v-569q-23 -12 -63 -17t-85 -5t-86 5t-61 17v569l102 398h90zM477 887q0 -76 -47 -120t-125 -44t-127 44t-49 120q0 74 49 118t127 44t125 -44t47 -118z" />
<glyph unicode="&#xa2;" d="M1067 166q-27 -72 -106.5 -123t-190.5 -61v-330h-158v330q-248 27 -372.5 167t-124.5 363q0 229 128 363.5t369 164.5v312h158v-305q92 -4 168 -23.5t129 -46.5q-4 -35 -11 -77t-16.5 -84t-21.5 -82t-25 -66h-69l-74 243q-10 4 -21.5 9.5t-40.5 7.5l-32 2v-787 q16 -4 31 -4h32q72 0 125 20.5t90 49.5zM432 528q0 -121 46 -214t149 -140v739q-84 -31 -139.5 -121t-55.5 -264z" />
<glyph unicode="&#xa3;" d="M82 768h158q-41 63 -74 140t-33 186q0 86 35 153.5t96.5 114.5t146.5 71.5t187 24.5q61 0 127 -7t124 -17.5t107.5 -24.5t77.5 -29q-2 -33 -9 -82t-16.5 -101t-21.5 -101t-22 -84h-70l-82 280q-74 33 -182 33q-78 0 -127 -38t-62 -111q-8 -39 -2 -86q6 -45 18.5 -86 t29.5 -80l35 -78l34 -78h256v-125h-221q8 -63 -7.5 -112.5t-39.5 -96.5q-8 -41 -29.5 -80t-58.5 -67l-68 -49v-9l105 13h362l100 229h70q6 -47 13.5 -112.5t13.5 -133t10 -128t4 -97.5h-979v111q119 51 182.5 121.5t73.5 177.5q4 23 4 44v44q-4 41 -13 76.5t-22 68.5h-231 v125z" />
<glyph unicode="&#xa4;" d="M74 365l153 151l82 29q-27 35 -38 72.5t-11 91.5q0 94 49 161l-82 31l-151 152l160 159l149 -151l33 -82q33 23 69.5 35t90.5 12q106 -2 163 -45l33 80l148 147l159 -157l-151 -150l-78 -29q20 -35 30.5 -73.5t12.5 -91.5q0 -92 -43 -162l78 -29l149 -151l-159 -160 l-150 149l-29 80q-31 -18 -72.5 -30.5t-88.5 -12.5q-53 2 -93.5 13.5t-72.5 29.5l-29 -78l-152 -151zM578 541q74 0 124 47t50 121t-50.5 122t-123.5 48q-74 2 -124.5 -47.5t-50.5 -122.5q0 -74 50.5 -121t124.5 -47z" />
<glyph unicode="&#xa5;" d="M776 1434h492v-78q-29 -18 -73 -35.5t-83 -24.5l-309 -596h239v-133h-290v-116h290v-134h-290v-180q39 -4 79.5 -21.5t75.5 -37.5v-78h-631v78q35 18 78 34.5t90 24.5v180h-292v134h292v116h-292v133h235l-334 596q-47 8 -89 24.5t-77 35.5v78h672v-78 q-27 -16 -64.5 -32.5t-86.5 -27.5l270 -577l262 577q-47 10 -89 26.5t-75 33.5v78z" />
<glyph unicode="&#xa6;" horiz-adv-x="481" d="M170 389h143v-655h-143v655zM313 778h-143v656h143v-656z" />
<glyph unicode="&#xa7;" horiz-adv-x="1159" d="M692 80q0 55 -43 92t-107.5 64.5t-140 56.5t-140 68.5t-107.5 98t-43 150.5q0 102 78.5 174t197.5 119q-43 23 -80 49.5t-64.5 60.5t-44 77t-16.5 98q0 123 105.5 196.5t277.5 73.5q111 0 200 -16.5t163 -38.5q-8 -66 -22.5 -120t-37.5 -116h-69l-107 158q-25 10 -46 13 t-54 3q-70 0 -102.5 -35.5t-32.5 -80.5q0 -55 44 -93t109.5 -70t142 -63.5t142.5 -73.5t110 -100.5t44 -142.5q0 -53 -24 -98t-60.5 -83t-83.5 -68t-93 -52q74 -41 126.5 -96.5t52.5 -145.5q0 -143 -113 -225t-319 -82q-98 0 -197.5 20.5t-175.5 57.5q4 74 24.5 124 t55.5 109h69l121 -172q23 -16 45.5 -19t46.5 -3q66 0 117 35t51 96zM774 616q0 45 -23.5 80t-61.5 61.5t-88 48.5l-103 44q-45 -33 -79 -80t-34 -98q0 -45 24.5 -79t64.5 -60.5t91 -48.5l105 -44q41 35 72.5 83t31.5 93z" />
<glyph unicode="&#xa8;" horiz-adv-x="1034" d="M123 1350q0 66 41 104.5t108 38.5q66 0 108 -39t42 -104q0 -61 -42 -100.5t-108 -39.5q-68 0 -108.5 39.5t-40.5 100.5zM612 1350q0 66 41 104.5t107 38.5q68 0 109.5 -39t41.5 -104q0 -61 -42 -100.5t-109 -39.5q-66 0 -107 39.5t-41 100.5z" />
<glyph unicode="&#xa9;" horiz-adv-x="1677" d="M113 594q0 170 60 304t161.5 226.5t231.5 141.5t272 49q141 0 271 -49t231.5 -141.5t162 -226.5t60.5 -304t-60.5 -304t-162 -226.5t-231.5 -141.5t-271 -49q-147 0 -279.5 49t-232 141.5t-156.5 226.5t-57 304zM250 594q0 -137 47 -247.5t127 -187.5t186.5 -119 t227.5 -42q125 0 232.5 42t186 119t123.5 187.5t45 247.5q0 141 -49 251.5t-130 187.5t-187.5 117t-220.5 40q-129 0 -236.5 -42t-185.5 -119t-122 -187.5t-44 -247.5zM1055 451h69q4 -16 9.5 -42t8.5 -56.5t4 -61.5t-1 -55q-35 -29 -107.5 -48.5t-156.5 -19.5 q-100 0 -183.5 27.5t-143.5 82t-94 134.5t-34 184q0 106 38 186t98.5 133.5t137 81t154.5 27.5q98 0 170 -17.5t115 -43.5q2 -18 0 -49t-6.5 -65t-9.5 -66.5t-11 -53.5h-70l-61 170q-14 10 -38.5 11t-49.5 1q-92 0 -141.5 -77.5t-49.5 -237.5q0 -68 11.5 -126t36 -100 t63.5 -65.5t94 -23.5q33 0 57.5 5t32.5 13z" />
<glyph unicode="&#xaa;" horiz-adv-x="942" d="M203 1221q-20 23 -39 67.5t-21 87.5q51 27 139.5 50.5t243.5 23.5q80 0 131.5 -13.5t82 -40t43 -65.5t12.5 -88q0 -78 -3.5 -166t-3.5 -153l103 -21v-72q-18 -10 -50 -19t-68 -17.5t-69.5 -13.5t-56.5 -7h-53q-14 35 -19.5 64.5t-7.5 64.5h-8q-10 -18 -28.5 -41.5 t-48 -44t-70.5 -34t-97 -13.5q-102 0 -162.5 52t-60.5 143q0 63 34 103t90 62.5t130 31.5t156 9q14 0 27.5 -1t27.5 -1q2 12 2 34v32q0 47 -24.5 79t-94.5 32q-23 0 -50.5 -4.5t-55.5 -14.5l-58 -106h-73zM420 883q57 0 90 35.5t47 68.5v105q-18 2 -35.5 3t-34.5 1 q-66 0 -110.5 -24.5t-44.5 -88.5q0 -39 22.5 -69.5t65.5 -30.5z" />
<glyph unicode="&#xab;" horiz-adv-x="1034" d="M483 530l365 455l88 -74l-217 -366l229 -387l-86 -74zM41 530l491 457l80 -74l-295 -370l308 -387l-80 -76z" />
<glyph unicode="&#xac;" horiz-adv-x="1130" d="M121 821h889v-442h-164v258h-725v184z" />
<glyph unicode="&#xad;" horiz-adv-x="847" d="M135 670h578v-185h-578v185z" />
<glyph unicode="&#xae;" horiz-adv-x="1439" d="M141 924q0 135 47.5 241.5t127 180t184 112.5t219.5 39q117 0 222.5 -39t184 -112.5t124.5 -180t46 -241.5t-47 -242t-127 -180.5t-184 -112.5t-219 -39q-117 0 -222.5 39t-184.5 112.5t-125 180.5t-46 242zM268 924q0 -106 36 -191.5t97.5 -146t143.5 -92t174 -31.5 q96 0 179 31.5t143.5 91t94 144.5t33.5 194q0 106 -35.5 191t-97 144.5t-143.5 92t-174 32.5q-98 0 -180 -32.5t-142.5 -92t-94.5 -144.5t-34 -191zM655 719q27 -2 41.5 -7t28.5 -12v-67h-283v67q35 12 72 19v440q-23 2 -39 7t-33 16v63h107q37 0 88 4t84 4 q111 0 180.5 -39.5t69.5 -132.5q0 -63 -39 -103t-96 -58l33 -56q15 -25 32 -48t38.5 -47t49.5 -50l47 -25v-61h-131l-57 22q-51 61 -77 123t-48 121h-68v-180zM711 1169q-23 0 -33 -1t-23 -5v-186h60q49 0 75.5 24.5t24.5 79.5q-2 47 -29.5 67.5t-74.5 20.5z" />
<glyph unicode="&#xaf;" horiz-adv-x="847" d="M123 1268v143h602v-143h-602z" />
<glyph unicode="&#x2c9;" horiz-adv-x="847" d="M123 1268v143h602v-143h-602z" />
<glyph unicode="&#xb0;" horiz-adv-x="845" d="M141 1169q0 63 23.5 116.5t63.5 91.5t94.5 59.5t113.5 21.5t113.5 -18.5t94.5 -54t63.5 -90t23.5 -126.5q0 -68 -23.5 -121t-63.5 -90.5t-94 -57t-114 -19.5q-59 0 -113.5 19.5t-94.5 57t-63.5 90.5t-23.5 121zM283 1169q0 -78 47 -120.5t106 -42.5q66 0 110 39.5 t44 123.5q0 80 -44 122t-110 42q-68 0 -110.5 -43t-42.5 -121z" />
<glyph unicode="&#xb1;" d="M117 1032h379v402h163v-402h379v-164h-379v-270h-163v270h-379v164zM117 500h921v-164h-921v164z" />
<glyph unicode="&#xb2;" horiz-adv-x="901" d="M233 1272h-55q-12 25 -28.5 66.5t-30 85.5t-23.5 83t-12 60q66 37 161 67.5t208 30.5q170 0 246.5 -66.5t76.5 -171.5q0 -68 -32.5 -133t-91 -124.5t-140.5 -114t-180 -101.5v-12l63 14h244l90 138h64q6 -35 12 -80t10 -88t5 -79t1 -56h-731v104q84 47 163 105.5 t140.5 122t99 130t37.5 129.5q0 61 -29.5 95t-101.5 34q-61 0 -106 -24z" />
<glyph unicode="&#xb3;" horiz-adv-x="901" d="M424 895q78 0 113.5 46t35.5 99q0 63 -38.5 99.5t-126.5 36.5h-78v71l157 176l91 86v4l-127 -8h-146l-82 -170h-63q-12 27 -22.5 70t-17.5 89t-12.5 88t-5.5 65h684v-93l-208 -206l-76 -64v-2l63 8q49 0 94.5 -15t81 -45t57 -75t21.5 -104q0 -133 -101.5 -206t-307.5 -73 q-41 0 -88.5 7t-92.5 20.5t-84 31t-65 35.5l70 217h55q10 -10 22 -30l27 -44l28 -48l23 -46q18 -6 48 -13t71 -7z" />
<glyph unicode="&#xb4;" horiz-adv-x="718" d="M344 1563q16 4 54 3t79 -7.5t75 -17.5t44 -23v-50l-391 -317l-82 45z" />
<glyph unicode="&#xb5;" horiz-adv-x="1273" d="M307 27l101 -357v-80q-74 -16 -138.5 -16t-124.5 16v1289l-122 16v80q33 12 81 24.5t99 21.5t99 16l81 12h70q0 -154 -6.5 -302.5t-6.5 -291.5q0 -168 34 -242t126 -74q63 0 118.5 48.5t90.5 154.5v537l-135 16v80q31 12 77 24.5t97 21.5t100 16l86 12h70v-904l135 -16 v-72q-29 -12 -72 -24.5t-91 -23.5t-94 -18t-83 -11h-70l-14 243h-8q-10 -43 -36 -87t-66.5 -80t-94 -58.5t-114.5 -22.5q-57 0 -103.5 14.5t-75.5 37.5h-10z" />
<glyph unicode="&#x3bc;" horiz-adv-x="1273" d="M307 27l101 -357v-80q-74 -16 -138.5 -16t-124.5 16v1289l-122 16v80q33 12 81 24.5t99 21.5t99 16l81 12h70q0 -154 -6.5 -302.5t-6.5 -291.5q0 -168 34 -242t126 -74q63 0 118.5 48.5t90.5 154.5v537l-135 16v80q31 12 77 24.5t97 21.5t100 16l86 12h70v-904l135 -16 v-72q-29 -12 -72 -24.5t-91 -23.5t-94 -18t-83 -11h-70l-14 243h-8q-10 -43 -36 -87t-66.5 -80t-94 -58.5t-114.5 -22.5q-57 0 -103.5 14.5t-75.5 37.5h-10z" />
<glyph unicode="&#xb6;" horiz-adv-x="1120" d="M842 193q0 -137 -20.5 -226.5t-60.5 -143.5t-98.5 -82t-134.5 -44q-41 -59 -101 -89t-124 -42l-33 67q45 18 85 46t69 74t46 118t17 178v586q-66 0 -130 20.5t-116.5 66.5t-85 121t-32.5 181q0 86 25.5 161t75.5 130t128 87t183 32h462v-88q-35 -16 -71.5 -28.5 t-83.5 -21.5v-1103zM569 -227q84 27 113 132t29 288v1114h-90v-1258q0 -82 -11.5 -152.5t-40.5 -123.5z" />
<glyph unicode="&#xb7;" horiz-adv-x="606" d="M129 657q0 74 47 119t125 45t127 -45t49 -119t-49 -117.5t-127 -43.5t-125 43.5t-47 117.5z" />
<glyph unicode="&#x22c5;" horiz-adv-x="606" d="M129 657q0 74 47 119t125 45t127 -45t49 -119t-49 -117.5t-127 -43.5t-125 43.5t-47 117.5z" />
<glyph unicode="&#x2219;" horiz-adv-x="606" d="M129 657q0 74 47 119t125 45t127 -45t49 -119t-49 -117.5t-127 -43.5t-125 43.5t-47 117.5z" />
<glyph unicode="&#xb8;" horiz-adv-x="651" d="M274 -139q123 -6 187.5 -44t66.5 -112q0 -59 -34.5 -102t-92 -72t-129 -43t-143.5 -14v80q143 23 143 116q-2 47 -39.5 67.5t-109.5 29.5l84 235h121z" />
<glyph unicode="&#xb9;" horiz-adv-x="901" d="M788 791h-641v61q55 29 105.5 49.5t101.5 30.5v440l8 92q-49 -14 -115.5 -15t-113.5 3v86q94 12 194.5 49t174.5 78h82v-733q113 -27 204 -80v-61z" />
<glyph unicode="&#xba;" horiz-adv-x="937" d="M76 1110q0 80 28.5 143.5t81 109.5t124 70.5t159.5 24.5t160.5 -21.5t124 -64.5t80 -108.5t28.5 -153.5q0 -80 -28.5 -144.5t-80 -109.5t-124 -69.5t-160.5 -24.5t-159.5 21.5t-124 64.5t-81 108.5t-28.5 153.5zM322 1110q0 -244 147 -244q72 0 109.5 54.5t37.5 189.5 t-37.5 189.5t-109.5 54.5q-76 0 -111.5 -54.5t-35.5 -189.5z" />
<glyph unicode="&#xbb;" horiz-adv-x="1034" d="M178 84l-86 74l223 372l-223 381l86 74l373 -450zM496 82l-80 76l301 372l-301 383l80 74l497 -452z" />
<glyph unicode="&#xbc;" horiz-adv-x="1961" d="M759 577h-641v62q55 29 105.5 49t101.5 31v440l8 92q-49 -14 -115.5 -15t-113.5 3v86q94 12 194.5 49t174.5 78h82v-733q113 -27 204 -80v-62zM1796 0h-499v62q31 16 69.5 33.5t79.5 25.5v111h-473v75l561 568h142v-520h174v-123h-174v-111q61 -12 120 -59v-62zM1446 565 l17 89h-7l-67 -89l-172 -178l-74 -47l111 15h192v210zM1581 1464l99 -86l-1198 -1405l-97 88z" />
<glyph unicode="&#xbd;" horiz-adv-x="2111" d="M759 577h-641v62q55 29 105.5 49t101.5 31v440l8 92q-49 -14 -115.5 -15t-113.5 3v86q94 12 194.5 49t174.5 78h82v-733q113 -27 204 -80v-62zM1409 481h-55q-12 25 -28.5 67t-30 86t-23.5 83t-12 59q66 37 161 68t208 31q170 0 246.5 -66.5t76.5 -171.5 q0 -68 -32.5 -133.5t-91 -124.5t-140.5 -113.5t-180 -101.5v-12l63 14h244l90 137h64q6 -35 12 -80t10 -88t5 -78.5t1 -56.5h-731v105q84 47 163 105t140.5 121.5t99 130.5t37.5 130q0 61 -29.5 95t-101.5 34q-61 0 -106 -24zM1581 1464l99 -86l-1198 -1405l-97 88z" />
<glyph unicode="&#xbe;" horiz-adv-x="2007" d="M457 682q78 0 113.5 46t35.5 99q0 63 -38.5 99t-126.5 36h-78v72l157 176l91 86v4l-127 -8h-146l-82 -170h-63q-12 27 -22.5 70t-17.5 89t-12.5 88t-5.5 64h684v-92l-208 -207l-76 -63v-2l63 8q49 0 94.5 -15.5t81 -45t57 -74.5t21.5 -105q0 -133 -101.5 -205.5 t-307.5 -72.5q-41 0 -88.5 7t-92.5 20.5t-84 31t-65 35.5l70 217h55q10 -10 22 -31l27 -44l28 -48l23 -45q18 -6 48 -13t71 -7zM1841 0h-499v62q31 16 69.5 33.5t79.5 25.5v111h-473v75l561 568h142v-520h174v-123h-174v-111q61 -12 120 -59v-62zM1491 565l17 89h-7l-67 -89 l-172 -178l-74 -47l111 15h192v210zM1626 1464l99 -86l-1198 -1405l-97 88z" />
<glyph unicode="&#xbf;" horiz-adv-x="995" d="M719 6h69l25 -66l29 -84q14 -44 24.5 -91.5t14.5 -86.5q-78 -47 -177.5 -75.5t-252.5 -28.5q-92 0 -165 25.5t-125 69.5t-80 105.5t-28 133.5q0 92 35 157.5t86 115.5t111.5 92t113 90.5t87 107.5t34.5 145h68q29 -94 21.5 -163.5t-34 -124t-64.5 -100.5l-74 -92 q-36 -46 -61.5 -99t-25.5 -123q0 -41 9.5 -78t30 -65.5t54 -46t82.5 -17.5q90 0 125 29zM705 887q0 -76 -48.5 -120t-126.5 -44t-127 44t-49 120q0 74 49.5 118t126.5 44q78 0 126.5 -44t48.5 -118z" />
<glyph unicode="&#xc0;" horiz-adv-x="1492" d="M506 0h-506v78q33 20 71 35.5t74 23.5l529 1321h151l514 -1321q41 -8 82 -23.5t72 -35.5v-78h-641v78q39 18 84 34.5t86 24.5l-119 326h-454l-121 -326q94 -12 178 -59v-78zM498 596h362l-133 391l-39 176h-4l-45 -180zM852 1565l-70 -39l-483 196v41q6 18 44 33.5t86 27 t94 16.5t69 -1z" />
<glyph unicode="&#xc1;" horiz-adv-x="1492" d="M506 0h-506v78q33 20 71 35.5t74 23.5l529 1321h151l514 -1321q41 -8 82 -23.5t72 -35.5v-78h-641v78q39 18 84 34.5t86 24.5l-119 326h-454l-121 -326q94 -12 178 -59v-78zM498 596h362l-133 391l-39 176h-4l-45 -180zM926 1839q33 2 74.5 -4t81.5 -17.5t72 -25.5 t44 -29v-41l-506 -196l-57 49z" />
<glyph unicode="&#xc2;" horiz-adv-x="1492" d="M506 0h-506v78q33 20 71 35.5t74 23.5l529 1321h151l514 -1321q41 -8 82 -23.5t72 -35.5v-78h-641v78q39 18 84 34.5t86 24.5l-119 326h-454l-121 -326q94 -12 178 -59v-78zM498 596h362l-133 391l-39 176h-4l-45 -180zM491 1522l-57 57l260 240q20 10 63 10t64 -10 l256 -234l-57 -61l-271 114z" />
<glyph unicode="&#xc3;" horiz-adv-x="1492" d="M506 0h-506v78q33 20 71 35.5t74 23.5l529 1321h151l514 -1321q41 -8 82 -23.5t72 -35.5v-78h-641v78q39 18 84 34.5t86 24.5l-119 326h-454l-121 -326q94 -12 178 -59v-78zM498 596h362l-133 391l-39 176h-4l-45 -180zM1105 1673q-66 -66 -123 -99.5t-131 -33.5 q-39 0 -72.5 11.5l-66.5 23.5l-63 23q-31 11 -64 12q-29 0 -62.5 -11.5t-66.5 -39.5l-57 96q156 139 276 139q37 0 71 -10t64.5 -22.5t61.5 -22.5t63 -10q27 0 60 9t65 31z" />
<glyph unicode="&#xc4;" horiz-adv-x="1492" d="M506 0h-506v78q33 20 71 35.5t74 23.5l529 1321h151l514 -1321q41 -8 82 -23.5t72 -35.5v-78h-641v78q39 18 84 34.5t86 24.5l-119 326h-454l-121 -326q94 -12 178 -59v-78zM498 596h362l-133 391l-39 176h-4l-45 -180zM334 1624q0 66 47 98.5t119 32.5t119 -32.5 t47 -98.5q0 -57 -47.5 -89t-118.5 -32q-72 0 -119 32t-47 89zM836 1624q0 66 48 98.5t120 32.5t118.5 -32.5t46.5 -98.5q0 -57 -47 -89t-118 -32q-72 0 -120 32t-48 89z" />
<glyph unicode="&#xc5;" horiz-adv-x="1492" d="M498 596h362l-133 391l-39 176h-4l-45 -180zM657 1614q0 -35 31 -52.5t62 -17.5q47 0 73.5 17.5t26.5 50.5q0 47 -27.5 65.5t-66.5 18.5q-43 0 -71 -18.5t-28 -63.5zM487 1614q0 84 74 134t199 50q53 0 100 -11t83 -33.5t56.5 -55.5t20.5 -78q0 -80 -74 -129 q-49 -33 -117 -45l510 -1309q41 -8 82 -23.5t72 -35.5v-78h-641v78q39 18 84 34.5t86 24.5l-119 326h-454l-121 -326q94 -12 178 -59v-78h-506v78q33 20 71 35.5t74 23.5l525 1311q-70 10 -113 41q-70 47 -70 125z" />
<glyph unicode="&#xc6;" horiz-adv-x="1964" d="M1845 1434q-4 -92 -14 -190.5t-27 -184.5h-86l-94 241h-383v-501h252l90 157h64q10 -100 10 -223t-10 -229h-64l-90 162h-252v-533h399l109 260h86q8 -39 15.5 -88t13.5 -101t9 -105.5t3 -98.5h-1100v78q33 16 74 32.5t84 26.5l4 363h-379l-211 -363q84 -16 158 -59v-78 h-496v78q33 20 70 35.5t74 23.5l712 1170l-61 21q-31 11 -57 28v78h1097zM635 633h303l6 584h-4l-74 -185z" />
<glyph unicode="&#xc7;" horiz-adv-x="1335" d="M1106 430h84q8 -33 15 -79t12.5 -98t7.5 -103.5t2 -92.5q-37 -25 -85 -40t-101.5 -24t-110 -13.5t-111.5 -4.5l-49 -118q123 -4 200 -48.5t77 -134.5q0 -68 -46.5 -117t-113 -80.5t-141 -46t-134.5 -14.5v95q72 10 118 40.5t44 88.5q-2 47 -35.5 73.5t-120.5 30.5l74 240 q-141 14 -253.5 64t-192.5 140.5t-123 222.5t-43 308q0 195 58.5 335t156.5 230t228 132t274 42q135 0 244.5 -19.5t179.5 -52.5q0 -33 -3.5 -84t-10.5 -107t-16 -110.5t-17 -91.5h-87l-112 310q-18 10 -59.5 16t-84.5 6q-84 0 -157.5 -34t-131 -107.5t-90 -189 t-32.5 -277.5q0 -293 116.5 -450.5t317.5 -157.5q57 0 97 9t55 25z" />
<glyph unicode="&#xc8;" horiz-adv-x="1236" d="M1118 1434q-4 -92 -14 -190.5t-27 -184.5h-84l-94 241h-383v-501h250l90 157h66q10 -100 10 -223t-10 -229h-66l-90 162h-250v-533h399l109 260h84q8 -39 16.5 -88t13.5 -101t8 -105.5t3 -98.5h-1108v78q35 18 78 34.5t90 24.5v1159q-41 8 -87 23.5t-81 36.5v78h1077z M758 1565l-70 -39l-483 196v41q6 18 44 33.5t86 27t94 16.5t69 -1z" />
<glyph unicode="&#xc9;" horiz-adv-x="1236" d="M1118 1434q-4 -92 -14 -190.5t-27 -184.5h-84l-94 241h-383v-501h250l90 157h66q10 -100 10 -223t-10 -229h-66l-90 162h-250v-533h399l109 260h84q8 -39 16.5 -88t13.5 -101t8 -105.5t3 -98.5h-1108v78q35 18 78 34.5t90 24.5v1159q-41 8 -87 23.5t-81 36.5v78h1077z M742 1839q33 2 74.5 -4t81.5 -17.5t72 -25.5t44 -29v-41l-506 -196l-57 49z" />
<glyph unicode="&#xca;" horiz-adv-x="1236" d="M1118 1434q-4 -92 -14 -190.5t-27 -184.5h-84l-94 241h-383v-501h250l90 157h66q10 -100 10 -223t-10 -229h-66l-90 162h-250v-533h399l109 260h84q8 -39 16.5 -88t13.5 -101t8 -105.5t3 -98.5h-1108v78q35 18 78 34.5t90 24.5v1159q-41 8 -87 23.5t-81 36.5v78h1077z M373 1522l-57 57l260 240q20 10 63 10t64 -10l256 -234l-57 -61l-271 114z" />
<glyph unicode="&#xcb;" horiz-adv-x="1236" d="M1118 1434q-4 -92 -14 -190.5t-27 -184.5h-84l-94 241h-383v-501h250l90 157h66q10 -100 10 -223t-10 -229h-66l-90 162h-250v-533h399l109 260h84q8 -39 16.5 -88t13.5 -101t8 -105.5t3 -98.5h-1108v78q35 18 78 34.5t90 24.5v1159q-41 8 -87 23.5t-81 36.5v78h1077z M191 1624q0 66 47 98.5t119 32.5t119 -32.5t47 -98.5q0 -57 -47.5 -89t-118.5 -32q-72 0 -119 32t-47 89zM693 1624q0 66 48 98.5t120 32.5t118.5 -32.5t46.5 -98.5q0 -57 -47 -89t-118 -32q-72 0 -120 32t-48 89z" />
<glyph unicode="&#xcc;" horiz-adv-x="761" d="M700 0h-639v78q82 45 166 59v1159q-41 6 -86 22.5t-80 37.5v78h639v-78q-37 -23 -81 -38t-84 -22v-1159q41 -8 85 -22.5t80 -36.5v-78zM619 1565l-70 -39l-483 196v41q6 18 44 33.5t86 27t94 16.5t69 -1z" />
<glyph unicode="&#xcd;" horiz-adv-x="761" d="M700 0h-639v78q82 45 166 59v1159q-41 6 -86 22.5t-80 37.5v78h639v-78q-37 -23 -81 -38t-84 -22v-1159q41 -8 85 -22.5t80 -36.5v-78zM449 1839q33 2 74.5 -4t81.5 -17.5t72 -25.5t44 -29v-41l-506 -196l-57 49z" />
<glyph unicode="&#xce;" horiz-adv-x="761" d="M700 0h-639v78q82 45 166 59v1159q-41 6 -86 22.5t-80 37.5v78h639v-78q-37 -23 -81 -38t-84 -22v-1159q41 -8 85 -22.5t80 -36.5v-78zM119 1522l-57 57l260 240q20 10 63 10t64 -10l256 -234l-57 -61l-271 114z" />
<glyph unicode="&#xcf;" horiz-adv-x="761" d="M700 0h-639v78q82 45 166 59v1159q-41 6 -86 22.5t-80 37.5v78h639v-78q-37 -23 -81 -38t-84 -22v-1159q41 -8 85 -22.5t80 -36.5v-78zM-35 1624q0 66 47 98.5t119 32.5t119 -32.5t47 -98.5q0 -57 -47.5 -89t-118.5 -32q-72 0 -119 32t-47 89zM467 1624q0 66 48 98.5 t120 32.5t118.5 -32.5t46.5 -98.5q0 -57 -47 -89t-118 -32q-72 0 -120 32t-48 89z" />
<glyph unicode="&#xd0;" horiz-adv-x="1517" d="M45 797h174v499q-47 10 -91 25.5t-77 34.5v78h238q35 0 86 2t106 5l108 6q52 3 89 3q178 0 318.5 -47t237.5 -137t149.5 -223.5t52.5 -307.5q0 -170 -49.5 -309t-147.5 -237.5t-248.5 -152.5t-353.5 -54q-27 0 -72 3t-96 6l-102 6q-51 3 -91 3h-225v78q35 20 78 35.5 t90 23.5v537h-174v123zM651 1317q-37 0 -73.5 -2t-63.5 -6v-512h313v-123h-313v-551q8 -2 29 -3l42 -2l42 -2q20 -1 30 -1q119 0 202 49t136.5 133t78 196.5t24.5 239.5q0 113 -25.5 217.5t-79 186.5t-138.5 131t-204 49z" />
<glyph unicode="&#xd1;" horiz-adv-x="1552" d="M1004 1434h507v-78q-39 -31 -86 -54.5t-88 -35.5v-1291h-174l-723 1045l-82 158h-6l19 -164v-854q41 -10 91 -34t85 -48v-78h-506v78q37 25 81 46t91 36v1118q-41 16 -82 36.5t-74 43.5v76h443l587 -852l95 -176h8l-10 176v684q-49 16 -95.5 39.5t-80.5 50.5v78z M1138 1673q-66 -66 -123 -99.5t-131 -33.5q-39 0 -72.5 11.5l-66.5 23.5l-63 23q-31 11 -64 12q-29 0 -62.5 -11.5t-66.5 -39.5l-57 96q156 139 276 139q37 0 71 -10t64.5 -22.5t61.5 -22.5t63 -10q27 0 60 9t65 31z" />
<glyph unicode="&#xd2;" horiz-adv-x="1544" d="M80 717q0 160 45 296t133 235.5t217 154.5t297 55t297 -55t216 -154.5t132 -235.5t45 -296t-45 -296t-132 -235.5t-216 -155t-297 -55.5t-297 55.5t-217 155t-133 235.5t-45 296zM428 717q0 -131 20.5 -243t64.5 -192.5t112.5 -126.5t165.5 -46q88 0 149 46t100 126.5 t56.5 192.5t17.5 243t-19.5 242.5t-61.5 192.5t-110.5 127t-166.5 46q-94 0 -157.5 -46t-101.5 -127t-53.5 -192.5t-15.5 -242.5zM948 1565l-70 -39l-483 196v41q6 18 44 33.5t86 27t94 16.5t69 -1z" />
<glyph unicode="&#xd3;" horiz-adv-x="1544" d="M80 717q0 160 45 296t133 235.5t217 154.5t297 55t297 -55t216 -154.5t132 -235.5t45 -296t-45 -296t-132 -235.5t-216 -155t-297 -55.5t-297 55.5t-217 155t-133 235.5t-45 296zM428 717q0 -131 20.5 -243t64.5 -192.5t112.5 -126.5t165.5 -46q88 0 149 46t100 126.5 t56.5 192.5t17.5 243t-19.5 242.5t-61.5 192.5t-110.5 127t-166.5 46q-94 0 -157.5 -46t-101.5 -127t-53.5 -192.5t-15.5 -242.5zM871 1839q33 2 74.5 -4t81.5 -17.5t72 -25.5t44 -29v-41l-506 -196l-57 49z" />
<glyph unicode="&#xd4;" horiz-adv-x="1544" d="M80 717q0 160 45 296t133 235.5t217 154.5t297 55t297 -55t216 -154.5t132 -235.5t45 -296t-45 -296t-132 -235.5t-216 -155t-297 -55.5t-297 55.5t-217 155t-133 235.5t-45 296zM428 717q0 -131 20.5 -243t64.5 -192.5t112.5 -126.5t165.5 -46q88 0 149 46t100 126.5 t56.5 192.5t17.5 243t-19.5 242.5t-61.5 192.5t-110.5 127t-166.5 46q-94 0 -157.5 -46t-101.5 -127t-53.5 -192.5t-15.5 -242.5zM508 1522l-57 57l260 240q20 10 63 10t64 -10l256 -234l-57 -61l-271 114z" />
<glyph unicode="&#xd5;" horiz-adv-x="1544" d="M80 717q0 160 45 296t133 235.5t217 154.5t297 55t297 -55t216 -154.5t132 -235.5t45 -296t-45 -296t-132 -235.5t-216 -155t-297 -55.5t-297 55.5t-217 155t-133 235.5t-45 296zM428 717q0 -131 20.5 -243t64.5 -192.5t112.5 -126.5t165.5 -46q88 0 149 46t100 126.5 t56.5 192.5t17.5 243t-19.5 242.5t-61.5 192.5t-110.5 127t-166.5 46q-94 0 -157.5 -46t-101.5 -127t-53.5 -192.5t-15.5 -242.5zM1126 1673q-66 -66 -123 -99.5t-131 -33.5q-39 0 -72.5 11.5l-66.5 23.5l-63 23q-31 11 -64 12q-29 0 -62.5 -11.5t-66.5 -39.5l-57 96 q156 139 276 139q37 0 71 -10t64.5 -22.5t61.5 -22.5t63 -10q27 0 60 9t65 31z" />
<glyph unicode="&#xd6;" horiz-adv-x="1544" d="M80 717q0 160 45 296t133 235.5t217 154.5t297 55t297 -55t216 -154.5t132 -235.5t45 -296t-45 -296t-132 -235.5t-216 -155t-297 -55.5t-297 55.5t-217 155t-133 235.5t-45 296zM428 717q0 -131 20.5 -243t64.5 -192.5t112.5 -126.5t165.5 -46q88 0 149 46t100 126.5 t56.5 192.5t17.5 243t-19.5 242.5t-61.5 192.5t-110.5 127t-166.5 46q-94 0 -157.5 -46t-101.5 -127t-53.5 -192.5t-15.5 -242.5zM354 1624q0 66 47 98.5t119 32.5t119 -32.5t47 -98.5q0 -57 -47.5 -89t-118.5 -32q-72 0 -119 32t-47 89zM856 1624q0 66 48 98.5t120 32.5 t118.5 -32.5t46.5 -98.5q0 -57 -47 -89t-118 -32q-72 0 -120 32t-48 89z" />
<glyph unicode="&#xd7;" d="M193 436l266 269l-262 264l114 114l264 -262l269 266l114 -114l-266 -268l273 -273l-117 -117l-273 273l-268 -266z" />
<glyph unicode="&#xd8;" horiz-adv-x="1544" d="M80 717q0 160 45 296t133 235.5t217 154.5t297 55q98 0 182 -20.5t156 -57.5l55 90l129 -79l-59 -95q113 -100 170 -248.5t57 -330.5q0 -160 -45 -296t-132 -235.5t-216 -155t-297 -55.5q-98 0 -180 19.5t-154 54.5l-53 -86l-125 80l53 86q-117 100 -175 251t-58 337z M428 717q0 -92 14.5 -173t42.5 -147l510 807q-41 57 -100 89t-139 32q-94 0 -157.5 -46t-101.5 -127t-53.5 -192.5t-15.5 -242.5zM1114 717q0 88 -12 166t-41 143l-508 -801q86 -117 238 -116q88 0 149 46t100 126.5t56.5 192.5t17.5 243z" />
<glyph unicode="&#xd9;" horiz-adv-x="1464" d="M14 1434h631v-78q-68 -43 -156 -60v-788q0 -100 23 -168t66 -110t103 -60t136 -18q68 0 124 19t98 62t64.5 113t22.5 172v768q-47 10 -97 28.5t-83 41.5v78h508v-78q-37 -27 -82 -43.5t-88 -26.5v-770q0 -262 -138 -398t-390 -136q-274 0 -424 122.5t-150 393.5v798 q-41 6 -86 21.5t-82 38.5v78zM926 1565l-70 -39l-483 196v41q6 18 44 33.5t86 27t94 16.5t69 -1z" />
<glyph unicode="&#xda;" horiz-adv-x="1464" d="M14 1434h631v-78q-68 -43 -156 -60v-788q0 -100 23 -168t66 -110t103 -60t136 -18q68 0 124 19t98 62t64.5 113t22.5 172v768q-47 10 -97 28.5t-83 41.5v78h508v-78q-37 -27 -82 -43.5t-88 -26.5v-770q0 -262 -138 -398t-390 -136q-274 0 -424 122.5t-150 393.5v798 q-41 6 -86 21.5t-82 38.5v78zM1022 1839q33 2 74.5 -4t81.5 -17.5t72 -25.5t44 -29v-41l-506 -196l-57 49z" />
<glyph unicode="&#xdb;" horiz-adv-x="1464" d="M14 1434h631v-78q-68 -43 -156 -60v-788q0 -100 23 -168t66 -110t103 -60t136 -18q68 0 124 19t98 62t64.5 113t22.5 172v768q-47 10 -97 28.5t-83 41.5v78h508v-78q-37 -27 -82 -43.5t-88 -26.5v-770q0 -262 -138 -398t-390 -136q-274 0 -424 122.5t-150 393.5v798 q-41 6 -86 21.5t-82 38.5v78zM538 1522l-57 57l260 240q20 10 63 10t64 -10l256 -234l-57 -61l-271 114z" />
<glyph unicode="&#xdc;" horiz-adv-x="1464" d="M14 1434h631v-78q-68 -43 -156 -60v-788q0 -100 23 -168t66 -110t103 -60t136 -18q68 0 124 19t98 62t64.5 113t22.5 172v768q-47 10 -97 28.5t-83 41.5v78h508v-78q-37 -27 -82 -43.5t-88 -26.5v-770q0 -262 -138 -398t-390 -136q-274 0 -424 122.5t-150 393.5v798 q-41 6 -86 21.5t-82 38.5v78zM381 1624q0 66 47 98.5t119 32.5t119 -32.5t47 -98.5q0 -57 -47.5 -89t-118.5 -32q-72 0 -119 32t-47 89zM883 1624q0 66 48 98.5t120 32.5t118.5 -32.5t46.5 -98.5q0 -57 -47 -89t-118 -32q-72 0 -120 32t-48 89z" />
<glyph unicode="&#xdd;" horiz-adv-x="1429" d="M928 1434h502v-78q-31 -18 -69 -35.5t-77 -24.5l-397 -696v-463q41 -4 81 -21.5t74 -37.5v-78h-630v78q35 18 77.5 34.5t90.5 24.5v461l-414 698q-47 8 -89 24.5t-77 35.5v78h672v-78q-29 -16 -66 -32.5t-86 -27.5l293 -548l279 548q-47 10 -90.5 26.5t-73.5 33.5v78z M1012 1839q33 2 74.5 -4t81.5 -17.5t72 -25.5t44 -29v-41l-506 -196l-57 49z" />
<glyph unicode="&#xde;" horiz-adv-x="1302" d="M516 129q55 -6 109.5 -23.5t97.5 -37.5v-68h-682v68q39 23 83 37t85 22v1180q-41 6 -86 22.5t-80 36.5v68h639v-68q-37 -23 -81 -38t-85 -21v-93q41 4 90 7.5t88 3.5q109 0 208 -21.5t176 -71t122 -130t45 -201.5q0 -115 -46 -199t-125 -139t-181 -83t-213 -28h-33 q-23 0 -48 1l-49 2q-24 1 -34 3v-229zM627 1092q-41 0 -64.5 -3.5t-46.5 -9.5v-585q18 -6 55 -7.5t60 -1.5q55 0 104 17.5t88 54.5t61.5 94.5t22.5 139.5q0 154 -74.5 227.5t-205.5 73.5z" />
<glyph unicode="&#xdf;" horiz-adv-x="1435" d="M938 1196q0 104 -57.5 165.5t-145.5 61.5q-45 0 -88 -10t-75.5 -44t-53 -98.5t-20.5 -170.5v-1100h-430v80q63 37 135 49v766h-156v80q72 45 156 67v72q0 127 52 210t131 131t172 66.5t177 18.5q236 0 354.5 -99.5t122.5 -262.5q-61 -10 -118.5 -27.5t-101.5 -47.5 t-70.5 -73t-26.5 -104q0 -63 36 -111.5t91 -91.5t117.5 -85t118 -93t91 -114.5t35.5 -147.5q0 -143 -107.5 -225.5t-313.5 -82.5q-98 0 -197.5 20.5t-175.5 57.5q4 61 20.5 109.5t38.5 83.5h70l141 -135q23 -12 45.5 -15.5t46.5 -3.5q66 0 112 35t46 96q0 59 -36 103.5 t-91 85.5t-117.5 82t-118 92t-91 116.5t-35.5 157.5q0 123 88 208t229 128z" />
<glyph unicode="&#xe0;" horiz-adv-x="1140" d="M963 297q0 -45 1 -78t5 -69l141 -21v-72q-25 -12 -67 -24.5t-88 -23.5t-91 -18t-80 -11h-69q-20 47 -24.5 94t-6.5 114h-10q-10 -41 -35 -78.5t-62.5 -67.5t-89 -48.5t-114.5 -18.5q-68 0 -125.5 20.5t-100.5 57.5t-67.5 89.5t-24.5 117.5q0 92 35 151.5t109.5 97.5 t192.5 56.5t286 26.5q6 61 6 111q0 93 -20 147q-31 82 -134 82q-63 0 -116 -21l-97 -245h-90q-16 25 -31.5 56.5t-28.5 67t-22.5 72.5t-13.5 72q78 53 201 84t260 31q117 0 190.5 -26t115.5 -70t58.5 -103t16.5 -127q0 -123 -5 -222.5t-5 -203.5zM502 139q43 0 73.5 16.5 t52 39t33 49t17.5 47.5v205q-96 -2 -157.5 -12.5t-96.5 -34t-48.5 -59.5t-13.5 -87q0 -78 37 -121t103 -43zM725 1206l-92 -45l-381 297v60q12 12 53 23t87 17.5t87 7.5t56 -3z" />
<glyph unicode="&#xe1;" horiz-adv-x="1140" d="M963 297q0 -45 1 -78t5 -69l141 -21v-72q-25 -12 -67 -24.5t-88 -23.5t-91 -18t-80 -11h-69q-20 47 -24.5 94t-6.5 114h-10q-10 -41 -35 -78.5t-62.5 -67.5t-89 -48.5t-114.5 -18.5q-68 0 -125.5 20.5t-100.5 57.5t-67.5 89.5t-24.5 117.5q0 92 35 151.5t109.5 97.5 t192.5 56.5t286 26.5q6 61 6 111q0 93 -20 147q-31 82 -134 82q-63 0 -116 -21l-97 -245h-90q-16 25 -31.5 56.5t-28.5 67t-22.5 72.5t-13.5 72q78 53 201 84t260 31q117 0 190.5 -26t115.5 -70t58.5 -103t16.5 -127q0 -123 -5 -222.5t-5 -203.5zM502 139q43 0 73.5 16.5 t52 39t33 49t17.5 47.5v205q-96 -2 -157.5 -12.5t-96.5 -34t-48.5 -59.5t-13.5 -87q0 -78 37 -121t103 -43zM647 1563q16 4 54 3t79 -7.5t75 -17.5t44 -23v-50l-391 -317l-82 45z" />
<glyph unicode="&#xe2;" horiz-adv-x="1140" d="M963 297q0 -45 1 -78t5 -69l141 -21v-72q-25 -12 -67 -24.5t-88 -23.5t-91 -18t-80 -11h-69q-20 47 -24.5 94t-6.5 114h-10q-10 -41 -35 -78.5t-62.5 -67.5t-89 -48.5t-114.5 -18.5q-68 0 -125.5 20.5t-100.5 57.5t-67.5 89.5t-24.5 117.5q0 92 35 151.5t109.5 97.5 t192.5 56.5t286 26.5q6 61 6 111q0 93 -20 147q-31 82 -134 82q-63 0 -116 -21l-97 -245h-90q-16 25 -31.5 56.5t-28.5 67t-22.5 72.5t-13.5 72q78 53 201 84t260 31q117 0 190.5 -26t115.5 -70t58.5 -103t16.5 -127q0 -123 -5 -222.5t-5 -203.5zM502 139q43 0 73.5 16.5 t52 39t33 49t17.5 47.5v205q-96 -2 -157.5 -12.5t-96.5 -34t-48.5 -59.5t-13.5 -87q0 -78 37 -121t103 -43zM381 1182l-86 51l225 381q12 10 50 11t57 -11l233 -379l-84 -53l-211 200z" />
<glyph unicode="&#xe3;" horiz-adv-x="1140" d="M963 297q0 -45 1 -78t5 -69l141 -21v-72q-25 -12 -67 -24.5t-88 -23.5t-91 -18t-80 -11h-69q-20 47 -24.5 94t-6.5 114h-10q-10 -41 -35 -78.5t-62.5 -67.5t-89 -48.5t-114.5 -18.5q-68 0 -125.5 20.5t-100.5 57.5t-67.5 89.5t-24.5 117.5q0 92 35 151.5t109.5 97.5 t192.5 56.5t286 26.5q6 61 6 111q0 93 -20 147q-31 82 -134 82q-63 0 -116 -21l-97 -245h-90q-16 25 -31.5 56.5t-28.5 67t-22.5 72.5t-13.5 72q78 53 201 84t260 31q117 0 190.5 -26t115.5 -70t58.5 -103t16.5 -127q0 -123 -5 -222.5t-5 -203.5zM502 139q43 0 73.5 16.5 t52 39t33 49t17.5 47.5v205q-96 -2 -157.5 -12.5t-96.5 -34t-48.5 -59.5t-13.5 -87q0 -78 37 -121t103 -43zM878 1366q-61 -70 -126.5 -101.5t-112.5 -31.5q-37 0 -70 11t-63 24l-61 23q-30 11 -60 12q-27 0 -54.5 -9.5t-60.5 -31.5l-57 86q76 78 144.5 108.5t115.5 30.5 q37 0 68.5 -10.5t60.5 -22.5t58.5 -22.5t60.5 -10.5q27 0 53.5 5.5t58.5 25.5z" />
<glyph unicode="&#xe4;" horiz-adv-x="1140" d="M963 297q0 -45 1 -78t5 -69l141 -21v-72q-25 -12 -67 -24.5t-88 -23.5t-91 -18t-80 -11h-69q-20 47 -24.5 94t-6.5 114h-10q-10 -41 -35 -78.5t-62.5 -67.5t-89 -48.5t-114.5 -18.5q-68 0 -125.5 20.5t-100.5 57.5t-67.5 89.5t-24.5 117.5q0 92 35 151.5t109.5 97.5 t192.5 56.5t286 26.5q6 61 6 111q0 93 -20 147q-31 82 -134 82q-63 0 -116 -21l-97 -245h-90q-16 25 -31.5 56.5t-28.5 67t-22.5 72.5t-13.5 72q78 53 201 84t260 31q117 0 190.5 -26t115.5 -70t58.5 -103t16.5 -127q0 -123 -5 -222.5t-5 -203.5zM502 139q43 0 73.5 16.5 t52 39t33 49t17.5 47.5v205q-96 -2 -157.5 -12.5t-96.5 -34t-48.5 -59.5t-13.5 -87q0 -78 37 -121t103 -43zM152 1350q0 66 41 104.5t108 38.5q66 0 108 -39t42 -104q0 -61 -42 -100.5t-108 -39.5q-68 0 -108.5 39.5t-40.5 100.5zM641 1350q0 66 41 104.5t107 38.5 q68 0 109.5 -39t41.5 -104q0 -61 -42 -100.5t-109 -39.5q-66 0 -107 39.5t-41 100.5z" />
<glyph unicode="&#xe5;" horiz-adv-x="1140" d="M963 297q0 -45 1 -78t5 -69l141 -21v-72q-25 -12 -67 -24.5t-88 -23.5t-91 -18t-80 -11h-69q-20 47 -24.5 94t-6.5 114h-10q-10 -41 -35 -78.5t-62.5 -67.5t-89 -48.5t-114.5 -18.5q-68 0 -125.5 20.5t-100.5 57.5t-67.5 89.5t-24.5 117.5q0 92 35 151.5t109.5 97.5 t192.5 56.5t286 26.5q6 61 6 111q0 93 -20 147q-31 82 -134 82q-63 0 -116 -21l-97 -245h-90q-16 25 -31.5 56.5t-28.5 67t-22.5 72.5t-13.5 72q78 53 201 84t260 31q117 0 190.5 -26t115.5 -70t58.5 -103t16.5 -127q0 -123 -5 -222.5t-5 -203.5zM502 139q43 0 73.5 16.5 t52 39t33 49t17.5 47.5v205q-96 -2 -157.5 -12.5t-96.5 -34t-48.5 -59.5t-13.5 -87q0 -78 37 -121t103 -43zM316 1391q0 84 62.5 145t179.5 61q109 0 169 -55t60 -145q0 -86 -63.5 -143.5t-168.5 -57.5q-119 0 -179 54.5t-60 140.5zM469 1395q0 -47 23 -72t57 -25 q84 0 84 91q0 55 -23.5 80.5t-58.5 25.5q-82 0 -82 -100z" />
<glyph unicode="&#xe6;" horiz-adv-x="1685" d="M868 952q35 37 102.5 67t196.5 30q104 0 195.5 -29t152 -94.5t84 -172t-3.5 -259.5h-628q2 -162 84 -258.5t237 -96.5q70 0 141.5 20.5t112.5 53.5l39 -41q-16 -35 -52 -70.5t-88 -63.5t-121 -45.5t-149 -17.5q-135 0 -251.5 50.5t-188.5 167.5q-14 -43 -48 -83t-82 -70 t-106.5 -47.5t-121.5 -17.5q-68 0 -125.5 20.5t-100.5 57.5t-67.5 89.5t-24.5 117.5q0 92 34 151.5t108.5 97.5t192.5 56.5t286 26.5q16 176 -13.5 258t-132.5 82q-63 0 -116 -21l-97 -245h-90q-16 25 -31.5 56.5t-28.5 67t-22.5 72.5t-13.5 72q78 53 201 84t260 31 q125 0 186 -27t90 -70zM502 139q43 0 73.5 15.5t51 38t32 48t17.5 46.5v209q-96 -2 -156.5 -12.5t-95.5 -34t-48.5 -59.5t-13.5 -87q0 -78 37 -121t103 -43zM1159 932q-41 0 -72.5 -14.5t-55 -52.5t-38 -102.5t-20.5 -162.5h330q14 160 -19 246t-125 86z" />
<glyph unicode="&#xe7;" horiz-adv-x="991" d="M934 166q-14 -41 -48 -75t-81 -60.5t-105.5 -41t-121.5 -14.5l-43 -114q123 -6 187 -44t66 -112q0 -59 -34.5 -102t-92 -72t-129 -43t-143.5 -14v80q143 23 143 116q-2 47 -39.5 67.5t-109.5 29.5l78 219q-207 31 -302.5 171t-95.5 355q0 260 142.5 398.5t404.5 138.5 q100 0 184.5 -21.5t139.5 -50.5q-4 -35 -11.5 -77t-16.5 -84t-21.5 -82t-24.5 -66h-100l-86 243q-14 10 -30.5 15.5t-49.5 5.5q-53 0 -92 -19.5t-66.5 -66.5t-41 -125t-13.5 -193q0 -84 18.5 -154.5t56.5 -122.5t95 -82t135 -30q72 0 125 20.5t90 49.5z" />
<glyph unicode="&#xe8;" horiz-adv-x="1099" d="M995 172q-16 -35 -52 -70.5t-88 -63.5t-120.5 -45.5t-148.5 -17.5q-127 0 -225.5 38t-164 109t-99.5 169t-34 221q0 262 137.5 399.5t381.5 137.5q104 0 195 -29t151.5 -94.5t84.5 -171.5q11 -50 11 -111q0 -68 -14 -149h-629q2 -162 83 -258.5t238 -96.5 q68 0 140.5 20.5t113.5 53.5zM573 932q-41 0 -72.5 -14.5t-55 -52.5t-38 -102.5t-20.5 -162.5h330q4 49 4 90q0 96 -23 156q-33 86 -125 86zM729 1206l-92 -45l-381 297v60q12 12 53 23t87 17.5t87 7.5t56 -3z" />
<glyph unicode="&#xe9;" horiz-adv-x="1099" d="M995 172q-16 -35 -52 -70.5t-88 -63.5t-120.5 -45.5t-148.5 -17.5q-127 0 -225.5 38t-164 109t-99.5 169t-34 221q0 262 137.5 399.5t381.5 137.5q104 0 195 -29t151.5 -94.5t84.5 -171.5q11 -50 11 -111q0 -68 -14 -149h-629q2 -162 83 -258.5t238 -96.5 q68 0 140.5 20.5t113.5 53.5zM573 932q-41 0 -72.5 -14.5t-55 -52.5t-38 -102.5t-20.5 -162.5h330q4 49 4 90q0 96 -23 156q-33 86 -125 86zM631 1563q16 4 54 3t79 -7.5t75 -17.5t44 -23v-50l-391 -317l-82 45z" />
<glyph unicode="&#xea;" horiz-adv-x="1099" d="M995 172q-16 -35 -52 -70.5t-88 -63.5t-120.5 -45.5t-148.5 -17.5q-127 0 -225.5 38t-164 109t-99.5 169t-34 221q0 262 137.5 399.5t381.5 137.5q104 0 195 -29t151.5 -94.5t84.5 -171.5q11 -50 11 -111q0 -68 -14 -149h-629q2 -162 83 -258.5t238 -96.5 q68 0 140.5 20.5t113.5 53.5zM573 932q-41 0 -72.5 -14.5t-55 -52.5t-38 -102.5t-20.5 -162.5h330q4 49 4 90q0 96 -23 156q-33 86 -125 86zM375 1182l-86 51l225 381q12 10 50 11t57 -11l233 -379l-84 -53l-211 200z" />
<glyph unicode="&#xeb;" horiz-adv-x="1099" d="M995 172q-16 -35 -52 -70.5t-88 -63.5t-120.5 -45.5t-148.5 -17.5q-127 0 -225.5 38t-164 109t-99.5 169t-34 221q0 262 137.5 399.5t381.5 137.5q104 0 195 -29t151.5 -94.5t84.5 -171.5q11 -50 11 -111q0 -68 -14 -149h-629q2 -162 83 -258.5t238 -96.5 q68 0 140.5 20.5t113.5 53.5zM573 932q-41 0 -72.5 -14.5t-55 -52.5t-38 -102.5t-20.5 -162.5h330q4 49 4 90q0 96 -23 156q-33 86 -125 86zM170 1350q0 66 41 104.5t108 38.5q66 0 108 -39t42 -104q0 -61 -42 -100.5t-108 -39.5q-68 0 -108.5 39.5t-40.5 100.5zM659 1350 q0 66 41 104.5t107 38.5q68 0 109.5 -39t41.5 -104q0 -61 -42 -100.5t-109 -39.5q-66 0 -107 39.5t-41 100.5z" />
<glyph unicode="&#xec;" horiz-adv-x="679" d="M629 0h-566v80q31 16 64 27.5t72 21.5v750l-136 16v80q31 12 77 24.5t97.5 21.5t100.5 16l86 12h70v-920q41 -10 73.5 -21.5t61.5 -27.5v-80zM477 1206l-92 -45l-381 297v60q12 12 53 23t87 17.5t87 7.5t56 -3z" />
<glyph unicode="&#xed;" horiz-adv-x="679" d="M629 0h-566v80q31 16 64 27.5t72 21.5v750l-136 16v80q31 12 77 24.5t97.5 21.5t100.5 16l86 12h70v-920q41 -10 73.5 -21.5t61.5 -27.5v-80zM387 1563q16 4 54 3t79 -7.5t75 -17.5t44 -23v-50l-391 -317l-82 45z" />
<glyph unicode="&#xee;" horiz-adv-x="679" d="M629 0h-566v80q31 16 64 27.5t72 21.5v750l-136 16v80q31 12 77 24.5t97.5 21.5t100.5 16l86 12h70v-920q41 -10 73.5 -21.5t61.5 -27.5v-80zM139 1182l-86 51l225 381q12 10 50 11t57 -11l233 -379l-84 -53l-211 200z" />
<glyph unicode="&#xef;" horiz-adv-x="679" d="M629 0h-566v80q31 16 64 27.5t72 21.5v750l-136 16v80q31 12 77 24.5t97.5 21.5t100.5 16l86 12h70v-920q41 -10 73.5 -21.5t61.5 -27.5v-80zM-49 1350q0 66 41 104.5t108 38.5q66 0 108 -39t42 -104q0 -61 -42 -100.5t-108 -39.5q-68 0 -108.5 39.5t-40.5 100.5z M440 1350q0 66 41 104.5t107 38.5q68 0 109.5 -39t41.5 -104q0 -61 -42 -100.5t-109 -39.5q-66 0 -107 39.5t-41 100.5z" />
<glyph unicode="&#xf0;" horiz-adv-x="1181" d="M358 1249l197 80q-51 49 -110.5 89t-125.5 65v53h199q113 -35 227 -127l201 82l55 -115l-151 -63q57 -63 106.5 -141t86 -169.5t58 -194.5t21.5 -216q0 -133 -33.5 -247t-101 -195.5t-169 -128t-234.5 -46.5q-125 0 -224.5 38t-168 107.5t-105.5 165t-37 210.5 q0 137 40 241.5t106.5 173t150.5 103.5t172 35q104 0 164.5 -35t105.5 -84q-23 74 -58.5 150.5t-86.5 148.5l-227 -94zM367 496q0 -84 13 -156t42 -125t72 -84t104 -31q113 0 160 118t47 343q0 109 -6 170.5t-17 87.5q-59 76 -190 76q-51 0 -92 -20.5t-71 -67.5t-46 -123.5 t-16 -187.5z" />
<glyph unicode="&#xf1;" horiz-adv-x="1318" d="M1294 0h-542v80q27 14 52 25.5t60 23.5v481q0 129 -36.5 202t-131.5 73q-78 0 -134 -50.5t-85 -136.5v-569q33 -8 58.5 -19.5t54.5 -29.5v-80h-543v80q51 27 135 49v750l-135 16v80q27 12 70 23.5t93 21.5t102.5 17t95.5 12h69v-211h2q43 86 129 148.5t209 62.5 q80 0 143.5 -19.5t107.5 -69t67.5 -132.5t23.5 -210v-489q82 -14 135 -49v-80zM997 1366q-61 -70 -126.5 -101.5t-112.5 -31.5q-37 0 -70 11t-63 24l-61 23q-30 11 -60 12q-27 0 -54.5 -9.5t-60.5 -31.5l-57 86q76 78 144.5 108.5t115.5 30.5q37 0 68.5 -10.5t60.5 -22.5 t58.5 -22.5t60.5 -10.5q27 0 53.5 5.5t58.5 25.5z" />
<glyph unicode="&#xf2;" horiz-adv-x="1216" d="M63 512q0 125 38 224.5t109 169t171 106.5t227 37q143 0 246.5 -40t170.5 -111t97.5 -170t30.5 -216q0 -125 -37 -224.5t-107.5 -169t-172 -106.5t-228.5 -37q-139 0 -241.5 40t-170 111t-100.5 170t-33 216zM381 512q0 -92 11 -169t40 -130t78 -83t127 -30q45 0 82 21.5 t63.5 70t40 127t13.5 193.5q0 94 -11.5 170t-39 129t-74.5 83t-119 30q-53 0 -92 -21.5t-65.5 -70t-40 -127t-13.5 -193.5zM768 1206l-92 -45l-381 297v60q12 12 53 23t87 17.5t87 7.5t56 -3z" />
<glyph unicode="&#xf3;" horiz-adv-x="1216" d="M63 512q0 125 38 224.5t109 169t171 106.5t227 37q143 0 246.5 -40t170.5 -111t97.5 -170t30.5 -216q0 -125 -37 -224.5t-107.5 -169t-172 -106.5t-228.5 -37q-139 0 -241.5 40t-170 111t-100.5 170t-33 216zM381 512q0 -92 11 -169t40 -130t78 -83t127 -30q45 0 82 21.5 t63.5 70t40 127t13.5 193.5q0 94 -11.5 170t-39 129t-74.5 83t-119 30q-53 0 -92 -21.5t-65.5 -70t-40 -127t-13.5 -193.5zM690 1563q16 4 54 3t79 -7.5t75 -17.5t44 -23v-50l-391 -317l-82 45z" />
<glyph unicode="&#xf4;" horiz-adv-x="1216" d="M63 512q0 125 38 224.5t109 169t171 106.5t227 37q143 0 246.5 -40t170.5 -111t97.5 -170t30.5 -216q0 -125 -37 -224.5t-107.5 -169t-172 -106.5t-228.5 -37q-139 0 -241.5 40t-170 111t-100.5 170t-33 216zM381 512q0 -92 11 -169t40 -130t78 -83t127 -30q45 0 82 21.5 t63.5 70t40 127t13.5 193.5q0 94 -11.5 170t-39 129t-74.5 83t-119 30q-53 0 -92 -21.5t-65.5 -70t-40 -127t-13.5 -193.5zM410 1182l-86 51l225 381q12 10 50 11t57 -11l233 -379l-84 -53l-211 200z" />
<glyph unicode="&#xf5;" horiz-adv-x="1216" d="M63 512q0 125 38 224.5t109 169t171 106.5t227 37q143 0 246.5 -40t170.5 -111t97.5 -170t30.5 -216q0 -125 -37 -224.5t-107.5 -169t-172 -106.5t-228.5 -37q-139 0 -241.5 40t-170 111t-100.5 170t-33 216zM381 512q0 -92 11 -169t40 -130t78 -83t127 -30q45 0 82 21.5 t63.5 70t40 127t13.5 193.5q0 94 -11.5 170t-39 129t-74.5 83t-119 30q-53 0 -92 -21.5t-65.5 -70t-40 -127t-13.5 -193.5zM940 1366q-61 -70 -126.5 -101.5t-112.5 -31.5q-37 0 -70 11t-63 24l-61 23q-30 11 -60 12q-27 0 -54.5 -9.5t-60.5 -31.5l-57 86q76 78 144.5 108.5 t115.5 30.5q37 0 68.5 -10.5t60.5 -22.5t58.5 -22.5t60.5 -10.5q27 0 53.5 5.5t58.5 25.5z" />
<glyph unicode="&#xf6;" horiz-adv-x="1216" d="M63 512q0 125 38 224.5t109 169t171 106.5t227 37q143 0 246.5 -40t170.5 -111t97.5 -170t30.5 -216q0 -125 -37 -224.5t-107.5 -169t-172 -106.5t-228.5 -37q-139 0 -241.5 40t-170 111t-100.5 170t-33 216zM381 512q0 -92 11 -169t40 -130t78 -83t127 -30q45 0 82 21.5 t63.5 70t40 127t13.5 193.5q0 94 -11.5 170t-39 129t-74.5 83t-119 30q-53 0 -92 -21.5t-65.5 -70t-40 -127t-13.5 -193.5zM215 1350q0 66 41 104.5t108 38.5q66 0 108 -39t42 -104q0 -61 -42 -100.5t-108 -39.5q-68 0 -108.5 39.5t-40.5 100.5zM704 1350q0 66 41 104.5 t107 38.5q68 0 109.5 -39t41.5 -104q0 -61 -42 -100.5t-109 -39.5q-66 0 -107 39.5t-41 100.5z" />
<glyph unicode="&#xf7;" d="M117 791h921v-164h-921v164zM403 1098q0 74 47.5 119t124.5 45q78 0 127.5 -45.5t49.5 -118.5q0 -74 -49.5 -118t-127.5 -44t-125 44t-47 118zM403 317q0 74 47.5 119t124.5 45q78 0 127.5 -45t49.5 -119t-49.5 -117.5t-127.5 -43.5t-125 43.5t-47 117.5z" />
<glyph unicode="&#xf8;" horiz-adv-x="1216" d="M233 90q-88 72 -129 179.5t-41 242.5q0 125 38 224.5t109 169t171 106.5t227 37q80 0 146.5 -13.5t122.5 -38.5l90 129l110 -77l-86 -121q84 -72 123 -178.5t39 -237.5q0 -125 -37 -224.5t-107.5 -169t-172 -106.5t-228.5 -37q-147 0 -258 48l-98 -142l-109 80zM381 512 q0 -53 6 -99t23 -83l356 514q-29 41 -71 64.5t-103 23.5q-109 0 -160 -95.5t-51 -324.5zM836 512q0 96 -27 168l-352 -510q61 -78 186 -78q96 0 144.5 95.5t48.5 324.5z" />
<glyph unicode="&#xf9;" horiz-adv-x="1273" d="M145 406q0 129 6.5 239.5t6.5 233.5l-135 16v80q33 12 81 24.5t99 21.5t99 16l81 12h70q0 -154 -6.5 -302.5t-6.5 -291.5q0 -168 34 -242t126 -74q63 0 117.5 48.5t89.5 154.5v537l-133 16v80q31 12 77 24.5t96 21.5t99 16l86 12h70v-904l135 -16v-72q-29 -12 -72 -24.5 t-90 -23.5t-93 -18t-83 -11h-70l-14 243h-8q-10 -43 -37 -87t-69 -80t-99 -58.5t-127 -22.5q-78 0 -138.5 19.5t-103.5 69t-65.5 132.5t-22.5 210zM795 1206l-92 -45l-381 297v60q12 12 53 23t87 17.5t87 7.5t56 -3z" />
<glyph unicode="&#xfa;" horiz-adv-x="1273" d="M145 406q0 129 6.5 239.5t6.5 233.5l-135 16v80q33 12 81 24.5t99 21.5t99 16l81 12h70q0 -154 -6.5 -302.5t-6.5 -291.5q0 -168 34 -242t126 -74q63 0 117.5 48.5t89.5 154.5v537l-133 16v80q31 12 77 24.5t96 21.5t99 16l86 12h70v-904l135 -16v-72q-29 -12 -72 -24.5 t-90 -23.5t-93 -18t-83 -11h-70l-14 243h-8q-10 -43 -37 -87t-69 -80t-99 -58.5t-127 -22.5q-78 0 -138.5 19.5t-103.5 69t-65.5 132.5t-22.5 210zM686 1563q16 4 54 3t79 -7.5t75 -17.5t44 -23v-50l-391 -317l-82 45z" />
<glyph unicode="&#xfb;" horiz-adv-x="1273" d="M145 406q0 129 6.5 239.5t6.5 233.5l-135 16v80q33 12 81 24.5t99 21.5t99 16l81 12h70q0 -154 -6.5 -302.5t-6.5 -291.5q0 -168 34 -242t126 -74q63 0 117.5 48.5t89.5 154.5v537l-133 16v80q31 12 77 24.5t96 21.5t99 16l86 12h70v-904l135 -16v-72q-29 -12 -72 -24.5 t-90 -23.5t-93 -18t-83 -11h-70l-14 243h-8q-10 -43 -37 -87t-69 -80t-99 -58.5t-127 -22.5q-78 0 -138.5 19.5t-103.5 69t-65.5 132.5t-22.5 210zM432 1182l-86 51l225 381q12 10 50 11t57 -11l233 -379l-84 -53l-211 200z" />
<glyph unicode="&#xfc;" horiz-adv-x="1273" d="M145 406q0 129 6.5 239.5t6.5 233.5l-135 16v80q33 12 81 24.5t99 21.5t99 16l81 12h70q0 -154 -6.5 -302.5t-6.5 -291.5q0 -168 34 -242t126 -74q63 0 117.5 48.5t89.5 154.5v537l-133 16v80q31 12 77 24.5t96 21.5t99 16l86 12h70v-904l135 -16v-72q-29 -12 -72 -24.5 t-90 -23.5t-93 -18t-83 -11h-70l-14 243h-8q-10 -43 -37 -87t-69 -80t-99 -58.5t-127 -22.5q-78 0 -138.5 19.5t-103.5 69t-65.5 132.5t-22.5 210zM232 1350q0 66 41 104.5t108 38.5q66 0 108 -39t42 -104q0 -61 -42 -100.5t-108 -39.5q-68 0 -108.5 39.5t-40.5 100.5z M721 1350q0 66 41 104.5t107 38.5q68 0 109.5 -39t41.5 -104q0 -61 -42 -100.5t-109 -39.5q-66 0 -107 39.5t-41 100.5z" />
<glyph unicode="&#xfd;" horiz-adv-x="1081" d="M78 895q-31 8 -56.5 20.5t-52.5 28.5v80h539v-78q-43 -29 -117 -51l207 -514l35 -131h4l33 133l159 512q-61 12 -112 49v80h395v-80q-43 -29 -117 -49l-333 -895q-49 -131 -98.5 -214t-98.5 -132t-98.5 -68.5t-98.5 -25.5q-20 18 -36.5 45.5t-29 59.5t-20.5 64.5 t-10 61.5l27 49h250q18 29 31.5 61.5t31.5 98.5zM637 1563q16 4 54 3t79 -7.5t75 -17.5t44 -23v-50l-391 -317l-82 45z" />
<glyph unicode="&#xfe;" horiz-adv-x="1247" d="M176 1370l-156 16v80q27 12 74 24.5t101.5 22t108.5 16.5t97 11h70v-721h2q35 98 109.5 164t208.5 66q90 0 162.5 -30t122.5 -92.5t78 -159.5t28 -232q0 -129 -36 -233.5t-102.5 -176.5t-162 -111t-215.5 -39q-70 0 -110 9.5t-85 31.5v-297q33 -4 65.5 -15t69.5 -34v-80 h-565v80q70 33 135 49v1651zM672 885q-70 0 -124 -49.5t-77 -151.5v-545q33 -25 70 -36t96 -11q117 0 172 112.5t55 330.5q0 168 -41.5 259t-150.5 91z" />
<glyph unicode="&#xff;" horiz-adv-x="1081" d="M78 895q-31 8 -56.5 20.5t-52.5 28.5v80h539v-78q-43 -29 -117 -51l207 -514l35 -131h4l33 133l159 512q-61 12 -112 49v80h395v-80q-43 -29 -117 -49l-333 -895q-49 -131 -98.5 -214t-98.5 -132t-98.5 -68.5t-98.5 -25.5q-20 18 -36.5 45.5t-29 59.5t-20.5 64.5 t-10 61.5l27 49h250q18 29 31.5 61.5t31.5 98.5zM178 1350q0 66 41 104.5t108 38.5q66 0 108 -39t42 -104q0 -61 -42 -100.5t-108 -39.5q-68 0 -108.5 39.5t-40.5 100.5zM667 1350q0 66 41 104.5t107 38.5q68 0 109.5 -39t41.5 -104q0 -61 -42 -100.5t-109 -39.5 q-66 0 -107 39.5t-41 100.5z" />
<glyph unicode="&#x131;" horiz-adv-x="679" d="M629 0h-566v80q31 16 64 27.5t72 21.5v750l-136 16v80q31 12 77 24.5t97.5 21.5t100.5 16l86 12h70v-920q41 -10 73.5 -21.5t61.5 -27.5v-80z" />
<glyph unicode="&#x152;" horiz-adv-x="2013" d="M987 0q-47 -10 -107.5 -17.5t-111.5 -7.5q-168 0 -297 55.5t-216 155t-131 235.5t-44 296t44 296t131 235.5t216 154.5t297 55q43 0 105.5 -7t111.5 -17h909q-4 -92 -14 -190.5t-27 -184.5h-84l-94 241h-383v-501h250l90 157h66q10 -100 10 -223t-10 -229h-66l-90 162 h-250v-533h400l108 260h84q8 -39 16.5 -88t13.5 -101t8 -105.5t3 -98.5h-938zM791 109q49 0 101 13t93 36v1106q-47 27 -106.5 44t-122.5 17q-94 0 -157.5 -46t-101.5 -127t-53.5 -192.5t-15.5 -242.5t20.5 -243t64.5 -192.5t113 -126.5t165 -46z" />
<glyph unicode="&#x153;" horiz-adv-x="1869" d="M381 512q0 -92 11 -170t41 -133t80 -86t130 -31q96 0 144.5 95.5t48.5 324.5q0 94 -11.5 171t-39 132t-74.5 86t-119 31q-109 0 -160 -95.5t-51 -324.5zM991 125q-72 -80 -169 -115t-214 -35q-139 0 -241.5 40t-170 111t-100.5 170t-33 216q0 125 38 224.5t109 169 t171 106.5t227 37t227.5 -39t153.5 -111q63 76 155.5 113t207.5 37q104 0 195 -29t151.5 -94.5t84 -172t-2.5 -259.5h-629q2 -162 84 -258.5t238 -96.5q70 0 141.5 20.5t111.5 53.5l39 -41q-16 -35 -52 -70.5t-88 -63.5t-120.5 -45.5t-148.5 -17.5q-59 0 -114.5 11.5 t-103.5 31t-86 47t-61 60.5zM1343 932q-41 0 -72.5 -14.5t-55 -52.5t-38 -102.5t-20.5 -162.5h330q14 160 -19 246t-125 86z" />
<glyph unicode="&#x178;" horiz-adv-x="1429" d="M928 1434h502v-78q-31 -18 -69 -35.5t-77 -24.5l-397 -696v-463q41 -4 81 -21.5t74 -37.5v-78h-630v78q35 18 77.5 34.5t90.5 24.5v461l-414 698q-47 8 -89 24.5t-77 35.5v78h672v-78q-29 -16 -66 -32.5t-86 -27.5l293 -548l279 548q-47 10 -90.5 26.5t-73.5 33.5v78z M375 1624q0 66 47 98.5t119 32.5t119 -32.5t47 -98.5q0 -57 -47.5 -89t-118.5 -32q-72 0 -119 32t-47 89zM877 1624q0 66 48 98.5t120 32.5t118.5 -32.5t46.5 -98.5q0 -57 -47 -89t-118 -32q-72 0 -120 32t-48 89z" />
<glyph unicode="&#x2c6;" horiz-adv-x="811" d="M209 1182l-86 51l225 381q12 10 50 11t57 -11l233 -379l-84 -53l-211 200z" />
<glyph unicode="&#x2da;" horiz-adv-x="716" d="M123 1391q0 84 62.5 145t179.5 61q109 0 169 -55t60 -145q0 -86 -63.5 -143.5t-168.5 -57.5q-119 0 -179 54.5t-60 140.5zM276 1395q0 -47 23 -72t57 -25q84 0 84 91q0 55 -23.5 80.5t-58.5 25.5q-82 0 -82 -100z" />
<glyph unicode="&#x2dc;" horiz-adv-x="911" d="M788 1366q-61 -70 -126.5 -101.5t-112.5 -31.5q-37 0 -70 11t-63 24l-61 23q-30 11 -60 12q-27 0 -54.5 -9.5t-60.5 -31.5l-57 86q76 78 144.5 108.5t115.5 30.5q37 0 68.5 -10.5t60.5 -22.5t58.5 -22.5t60.5 -10.5q27 0 53.5 5.5t58.5 25.5z" />
<glyph unicode="&#x4d5;" horiz-adv-x="1685" d="M868 952q35 37 102.5 67t196.5 30q104 0 195.5 -29t152 -94.5t84 -172t-3.5 -259.5h-628q2 -162 84 -258.5t237 -96.5q70 0 141.5 20.5t112.5 53.5l39 -41q-16 -35 -52 -70.5t-88 -63.5t-121 -45.5t-149 -17.5q-135 0 -251.5 50.5t-188.5 167.5q-14 -43 -48 -83t-82 -70 t-106.5 -47.5t-121.5 -17.5q-68 0 -125.5 20.5t-100.5 57.5t-67.5 89.5t-24.5 117.5q0 92 34 151.5t108.5 97.5t192.5 56.5t286 26.5q16 176 -13.5 258t-132.5 82q-63 0 -116 -21l-97 -245h-90q-16 25 -31.5 56.5t-28.5 67t-22.5 72.5t-13.5 72q78 53 201 84t260 31 q125 0 186 -27t90 -70zM502 139q43 0 73.5 15.5t51 38t32 48t17.5 46.5v209q-96 -2 -156.5 -12.5t-95.5 -34t-48.5 -59.5t-13.5 -87q0 -78 37 -121t103 -43zM1159 932q-41 0 -72.5 -14.5t-55 -52.5t-38 -102.5t-20.5 -162.5h330q14 160 -19 246t-125 86z" />
<glyph unicode="&#x2000;" horiz-adv-x="919" />
<glyph unicode="&#x2001;" horiz-adv-x="1841" />
<glyph unicode="&#x2002;" horiz-adv-x="919" />
<glyph unicode="&#x2003;" horiz-adv-x="1841" />
<glyph unicode="&#x2004;" horiz-adv-x="612" />
<glyph unicode="&#x2005;" horiz-adv-x="458" />
<glyph unicode="&#x2006;" horiz-adv-x="305" />
<glyph unicode="&#x2007;" horiz-adv-x="305" />
<glyph unicode="&#x2008;" horiz-adv-x="229" />
<glyph unicode="&#x2009;" horiz-adv-x="366" />
<glyph unicode="&#x200a;" horiz-adv-x="100" />
<glyph unicode="&#x2010;" horiz-adv-x="847" d="M135 670h578v-185h-578v185z" />
<glyph unicode="&#x2011;" horiz-adv-x="847" d="M135 670h578v-185h-578v185z" />
<glyph unicode="&#x2012;" horiz-adv-x="847" d="M135 670h578v-185h-578v185z" />
<glyph unicode="&#x2013;" horiz-adv-x="1282" d="M147 670h988v-185h-988v185z" />
<glyph unicode="&#x2014;" horiz-adv-x="1814" d="M147 670h1520v-185h-1520v185z" />
<glyph unicode="&#x2018;" horiz-adv-x="630" d="M500 1593q-80 -20 -122 -60t-38 -95q27 -33 66.5 -52.5t85.5 -33.5q10 -37 2.5 -75t-28 -69.5t-48 -54.5t-56.5 -27q-43 2 -83.5 17.5t-71.5 44.5t-50.5 68.5t-19.5 91.5q0 61 24.5 117.5t68.5 101.5t105.5 76.5t135.5 44.5z" />
<glyph unicode="&#x2019;" horiz-adv-x="630" d="M127 942q80 20 125 71.5t41 106.5q-27 33 -67 52.5t-85 33.5q-10 37 -3 75t27.5 69.5t48.5 54t56 27.5q41 -2 82 -17.5t73 -43.5t51.5 -70t19.5 -99q0 -55 -25 -112.5t-69 -106.5t-105 -85t-133 -50z" />
<glyph unicode="&#x201a;" horiz-adv-x="630" d="M127 -211q80 20 125 71.5t41 106.5q-27 33 -67 52.5t-85 33.5q-10 37 -3 75t27.5 69.5t48.5 54t56 27.5q41 -2 82 -17.5t73 -43.5t51.5 -70t19.5 -99q0 -55 -25 -112.5t-69 -106.5t-105 -85t-133 -50z" />
<glyph unicode="&#x201c;" horiz-adv-x="1050" d="M920 1593q-80 -20 -122 -60t-38 -95q27 -33 66.5 -52.5t85.5 -33.5q10 -37 2.5 -75t-28 -69.5t-48 -54.5t-56.5 -27q-43 2 -83.5 17.5t-71.5 44.5t-50.5 68.5t-19.5 91.5q0 61 24.5 117.5t68.5 101.5t105.5 76.5t135.5 44.5zM500 1593q-80 -20 -122 -60t-38 -95 q27 -33 66.5 -52.5t85.5 -33.5q10 -37 2.5 -75t-28 -69.5t-48 -54.5t-56.5 -27q-43 2 -83.5 17.5t-71.5 44.5t-50.5 68.5t-19.5 91.5q0 61 24.5 117.5t68.5 101.5t105.5 76.5t135.5 44.5z" />
<glyph unicode="&#x201d;" horiz-adv-x="1050" d="M547 942q80 20 125 71.5t41 106.5q-27 33 -67 52.5t-85 33.5q-10 37 -3 75t27.5 69.5t48.5 54t56 27.5q41 -2 82 -17.5t73 -43.5t51.5 -70t19.5 -99q0 -55 -25 -112.5t-69 -106.5t-105 -85t-133 -50zM127 942q80 20 125 71.5t41 106.5q-27 33 -67 52.5t-85 33.5 q-10 37 -3 75t27.5 69.5t48.5 54t56 27.5q41 -2 82 -17.5t73 -43.5t51.5 -70t19.5 -99q0 -55 -25 -112.5t-69 -106.5t-105 -85t-133 -50z" />
<glyph unicode="&#x201e;" horiz-adv-x="1050" d="M547 -211q80 20 125 71.5t41 106.5q-27 33 -67 52.5t-85 33.5q-10 37 -3 75t27.5 69.5t48.5 54t56 27.5q41 -2 82 -17.5t73 -43.5t51.5 -70t19.5 -99q0 -55 -25 -112.5t-69 -106.5t-105 -85t-133 -50zM127 -211q80 20 125 71.5t41 106.5q-27 33 -67 52.5t-85 33.5 q-10 37 -3 75t27.5 69.5t48.5 54t56 27.5q41 -2 82 -17.5t73 -43.5t51.5 -70t19.5 -99q0 -55 -25 -112.5t-69 -106.5t-105 -85t-133 -50z" />
<glyph unicode="&#x2022;" horiz-adv-x="997" d="M180 637q0 70 24.5 129t67.5 100t101.5 64.5t124.5 23.5t124 -21.5t101 -62.5t67.5 -100t24.5 -133t-24.5 -133.5t-67.5 -100.5t-101.5 -62.5t-123.5 -21.5q-66 0 -124.5 21.5t-101.5 62.5t-67.5 100.5t-24.5 133.5z" />
<glyph unicode="&#x2026;" horiz-adv-x="1937" d="M129 145q0 74 47 119t125 45t127 -45t49 -119t-49 -117.5t-127 -43.5t-125 43.5t-47 117.5zM795 145q0 74 47 119t125 45t127 -45t49 -119t-49.5 -117.5t-126.5 -43.5q-78 0 -125 43.5t-47 117.5zM1460 145q0 74 47 119t125 45t127 -45t49 -119t-49 -117.5t-127 -43.5 t-125 43.5t-47 117.5z" />
<glyph unicode="&#x202f;" horiz-adv-x="366" />
<glyph unicode="&#x2039;" horiz-adv-x="643" d="M41 530l416 457l78 -76l-207 -366l219 -387l-76 -68z" />
<glyph unicode="&#x203a;" horiz-adv-x="643" d="M178 90l-76 78l213 371l-213 383l76 65l424 -442z" />
<glyph unicode="&#x2044;" horiz-adv-x="649" d="M872 1464l99 -86l-1198 -1405l-97 88z" />
<glyph unicode="&#x205f;" horiz-adv-x="458" />
<glyph unicode="&#x2081;" horiz-adv-x="880" d="M784 -205h-641v62q55 29 105.5 49t101.5 31v440l8 92q-49 -14 -115.5 -15t-113.5 3v86q94 12 194.5 49t174.5 78h82v-733q113 -27 204 -80v-62z" />
<glyph unicode="&#x2082;" horiz-adv-x="901" d="M233 276h-55q-12 25 -28.5 67t-30 86t-23.5 83t-12 59q66 37 161 68t208 31q170 0 246.5 -66.5t76.5 -171.5q0 -68 -32.5 -133.5t-91 -124.5t-140.5 -113.5t-180 -101.5v-12l63 14h244l90 137h64q6 -35 12 -80t10 -88t5 -78.5t1 -56.5h-731v105q84 47 163 105 t140.5 121.5t99 130.5t37.5 130q0 61 -29.5 95t-101.5 34q-61 0 -106 -24z" />
<glyph unicode="&#x2083;" horiz-adv-x="901" d="M424 -100q78 0 113.5 46t35.5 99q0 63 -38.5 99t-126.5 36h-78v72l157 176l91 86v4l-127 -8h-146l-82 -170h-63q-12 27 -22.5 70t-17.5 89t-12.5 88t-5.5 64h684v-92l-208 -207l-76 -63v-2l63 8q49 0 94.5 -15.5t81 -45t57 -74.5t21.5 -105q0 -133 -101.5 -205.5 t-307.5 -72.5q-41 0 -88.5 7t-92.5 20.5t-84 31t-65 35.5l70 217h55q10 -10 22 -31l27 -44l28 -48l23 -45q18 -6 48 -13t71 -7z" />
<glyph unicode="&#x2084;" horiz-adv-x="901" d="M827 -205h-499v62q31 16 69.5 33.5t79.5 25.5v111h-473v75l561 568h142v-520h174v-123h-174v-111q61 -12 120 -59v-62zM477 360l17 89h-7l-67 -89l-172 -178l-74 -47l111 15h192v210z" />
<glyph unicode="&#x20ac;" d="M-59 918h127q23 143 80 245.5t141 168t189.5 96t223.5 30.5q135 0 243 -19.5t177 -52.5q0 -33 -4 -84t-11 -107t-16.5 -110.5t-17.5 -91.5h-84l-115 310q-18 10 -56 16t-79 6q-141 0 -238.5 -95t-127.5 -312h501l-34 -138h-480v-63v-33q0 -16 2 -33h445l-35 -137h-397 q31 -193 127 -299t258 -106q117 0 147 34l99 287h86q8 -33 15 -79t12 -98t7 -103.5t2 -92.5q-72 -45 -176 -63.5t-217 -18.5q-575 0 -663 539h-166l35 137h114q-2 23 -2 44v44v21q0 10 2 20h-149z" />
<glyph unicode="&#x2122;" horiz-adv-x="2285" d="M756 666h-488v75q25 12 57.5 21.5t59.5 15.5v551h-104l-60 -231h-86q-10 33 -19.5 79t-16.5 93t-12 91t-5 73h864q0 -29 -5 -72t-12 -91t-16.5 -94.5t-21.5 -78.5h-84l-62 231h-104v-551l69 -18q32 -8 46 -19v-75zM1300 666h-339v75q27 12 53 21.5t51 15.5l37 527 q-33 12 -53 25l-41 28v76h422l114 -353l31 -116h4l33 118l125 351h436v-76q-20 -12 -45 -22.5t-60 -14.5l31 -543q57 -10 105 -37v-75h-449v75q16 8 39 17.5t57 19.5l-32 500h-13l-213 -612h-131l-219 612h-14l-23 -500q55 -18 94 -37v-75z" />
<glyph unicode="&#xe000;" horiz-adv-x="1025" d="M0 1025h1025v-1025h-1025v1025z" />
<glyph unicode="&#xf408;" horiz-adv-x="888" d="M180 1522l-57 57l260 240q20 10 63 10t64 -10l256 -234l-57 -61l-271 114z" />
<glyph unicode="&#xf40d;" horiz-adv-x="952" d="M829 1673q-66 -66 -123 -99.5t-131 -33.5q-39 0 -72.5 11.5l-66.5 23.5l-63 23q-31 11 -64 12q-29 0 -62.5 -11.5t-66.5 -39.5l-57 96q156 139 276 139q37 0 71 -10t64.5 -22.5t61.5 -22.5t63 -10q27 0 60 9t65 31z" />
<glyph unicode="&#xf6c9;" horiz-adv-x="808" d="M414 1839q33 2 74.5 -4t81.5 -17.5t72 -25.5t44 -29v-41l-506 -196l-57 49z" />
<glyph unicode="&#xf6cb;" horiz-adv-x="1081" d="M123 1624q0 66 47 98.5t119 32.5t119 -32.5t47 -98.5q0 -57 -47.5 -89t-118.5 -32q-72 0 -119 32t-47 89zM625 1624q0 66 48 98.5t120 32.5t118.5 -32.5t46.5 -98.5q0 -57 -47 -89t-118 -32q-72 0 -120 32t-48 89z" />
<glyph unicode="&#xf6ce;" horiz-adv-x="798" d="M676 1565l-70 -39l-483 196v41q6 18 44 33.5t86 27t94 16.5t69 -1z" />
<glyph unicode="&#xfb01;" horiz-adv-x="1351" d="M1300 0h-555v80q25 14 58 27.5t67 21.5v766h-372v-766q41 -4 80.5 -18.5t74.5 -30.5v-80h-585v80q63 37 135 49v766h-156v80q72 45 156 67v72q0 127 47 210t121.5 131t168 66.5t187.5 18.5q53 0 119.5 -7t130 -19.5t117 -28t82.5 -31.5q-6 -68 -24.5 -122t-39.5 -95h-172 l-152 195q-53 0 -105 -11.5t-93 -44.5t-66.5 -93t-25.5 -157v-102h196q35 0 88 3l112 6q58 3 112.5 7t89.5 9h69v-920q41 -10 74 -21.5t61 -27.5v-80z" />
<glyph unicode="&#xfb02;" horiz-adv-x="1361" d="M870 1370q-43 16 -81.5 28.5t-77.5 12.5q-53 0 -92 -14.5t-67 -48t-41 -92t-13 -144.5v-88h217v-129h-217v-766q45 -6 88 -19.5t78 -29.5v-80h-596v80q63 37 135 49v766h-156v80q72 45 156 67v72q0 127 31.5 210t87 131t130 66.5t158.5 18.5q86 0 155 -21.5t101 -33.5 q43 16 106.5 33.5t123.5 21.5h69v-1411q35 -8 73 -20.5t73 -28.5v-80h-555v80q25 16 55.5 28.5t58.5 20.5v1241z" />
<glyph unicode="&#xfb03;" horiz-adv-x="2203" d="M2153 0h-566v80q31 16 64 27.5t72 21.5v750l-136 16v80q31 12 77 24.5t97.5 21.5t100.5 16l86 12h70v-920q41 -10 73.5 -21.5t61.5 -27.5v-80zM1688 1360q0 72 49 112.5t127 40.5t127 -40.5t49 -112.5q0 -70 -49 -111t-127 -41t-127 41t-49 111zM1419 1540 q84 0 150.5 -15.5t101.5 -29.5q-6 -68 -26.5 -139.5t-36.5 -118.5h-70l-90 195q-53 0 -89 -11.5t-57.5 -44.5t-31.5 -93t-10 -157v-102h217v-129h-217v-766q106 -12 196 -49v-80h-626v80q63 37 135 49v766h-156v80q72 45 156 67v72q0 127 35.5 210t97 131t144.5 66.5 t177 18.5zM657 1540q84 0 150.5 -15.5t101.5 -29.5q-6 -68 -26.5 -139.5t-36.5 -118.5h-70l-90 195q-53 0 -89 -11.5t-57.5 -44.5t-31.5 -93t-10 -157v-102h217v-129h-217v-766q106 -12 196 -49v-80h-626v80q63 37 135 49v766h-156v80q72 45 156 67v72q0 127 35.5 210 t97 131t144.5 66.5t177 18.5z" />
<glyph unicode="&#xfb04;" horiz-adv-x="2203" d="M2153 0h-566v80q68 33 136 49v1241l-156 16v80q27 12 74 24.5t101 22t108.5 16.5t97.5 11h70v-1411q68 -16 135 -49v-80zM1419 1540q84 0 150.5 -15.5t101.5 -29.5q-6 -68 -26.5 -139.5t-36.5 -118.5h-70l-90 195q-53 0 -89 -11.5t-57.5 -44.5t-31.5 -93t-10 -157v-102 h217v-129h-217v-766q106 -12 196 -49v-80h-626v80q63 37 135 49v766h-156v80q72 45 156 67v72q0 127 35.5 210t97 131t144.5 66.5t177 18.5zM657 1540q84 0 150.5 -15.5t101.5 -29.5q-6 -68 -26.5 -139.5t-36.5 -118.5h-70l-90 195q-53 0 -89 -11.5t-57.5 -44.5t-31.5 -93 t-10 -157v-102h217v-129h-217v-766q106 -12 196 -49v-80h-626v80q63 37 135 49v766h-156v80q72 45 156 67v72q0 127 35.5 210t97 131t144.5 66.5t177 18.5z" />
</font>
</defs>
</svg>
