<?xml version="1.0" standalone="no"?>
<!DOCTYPE svg PUBLIC "-//W3C//DTD SVG 1.1//EN" "http://www.w3.org/Graphics/SVG/1.1/DTD/svg11.dtd" >
<svg xmlns="http://www.w3.org/2000/svg">
<metadata>
This is a custom SVG webfont generated by Font Squirrel.
Copyright   : Copyright  2010 ParaType Ltd All rights reserved
Designer    : AKorolkova OUmpeleva VYefimov
Foundry     : ParaType Ltd
Foundry URL : httpwwwparatypecom
</metadata>
<defs>
<font id="webfontTuFjCF5C" horiz-adv-x="1228" >
<font-face units-per-em="2048" ascent="1593" descent="-455" />
<missing-glyph horiz-adv-x="561" />
<glyph unicode=" "  horiz-adv-x="561" />
<glyph unicode="&#x09;" horiz-adv-x="561" />
<glyph unicode="&#xa0;" horiz-adv-x="561" />
<glyph unicode="!" horiz-adv-x="753" d="M399 446l-77 363v625h215v-625l-76 -363h-62zM272 119q0 63 44 100t114 37q72 0 117 -37t45 -100q0 -61 -45 -98t-117 -37q-70 0 -114 37t-44 98z" />
<glyph unicode="&#x22;" horiz-adv-x="876" d="M480 1434h200l-55 -404h-90zM199 1434h200l-55 -404h-90z" />
<glyph unicode="#" d="M707 477h-328l-94 -358h-121l94 358h-184l35 96h174l82 306h-177l35 96h170l90 340h121l-90 -340h326l92 340h121l-92 -340h184l-41 -96h-170l-82 -306h178l-43 -96h-160l-94 -358h-121zM408 573h323l82 306h-328z" />
<glyph unicode="$" d="M547 -25q-70 0 -131.5 12.5t-111.5 32t-89 41t-63 39.5v285h147v-205l41 -53q37 -18 80 -30.5t127 -14.5v582q-2 0 -16.5 5t-69.5 27q-68 27 -129.5 59.5t-109.5 79t-76.5 109t-28.5 148.5q0 74 31.5 137t89 112.5t136.5 79t173 35.5v100h123v-100q111 -6 189.5 -25.5 t139.5 -46.5v-268h-147v168l-41 41q-72 25 -141 25v-545q98 -41 180 -80t141.5 -88t92 -115.5t32.5 -161.5q0 -152 -117.5 -254t-328.5 -124v-125h-123v118zM901 344q0 53 -18.5 94t-50 73t-74.5 57.5t-92 45.5v-520q104 25 169.5 88.5t65.5 161.5zM332 1126 q0 -106 62.5 -167.5t156.5 -106.5v496q-102 -10 -160.5 -73t-58.5 -149z" />
<glyph unicode="%" horiz-adv-x="1859" d="M1550 1462l84 -78l-1345 -1404l-80 79zM118 1110q0 80 31 143.5t84 109.5t128 70.5t161 24.5q88 0 161.5 -21.5t127 -64.5t83 -108.5t29.5 -153.5q0 -80 -29.5 -144.5t-83 -109.5t-127 -69.5t-161.5 -24.5q-86 0 -161 21.5t-128 64.5t-84 108.5t-31 153.5zM315 1110 q0 -123 53 -196.5t154 -73.5q205 0 205 270t-205 270q-100 0 -153.5 -67.5t-53.5 -202.5zM934 326q0 80 31 143.5t84 109.5t128 70.5t161 24.5q88 0 161.5 -21.5t127 -64.5t83 -108.5t29.5 -153.5q0 -80 -29.5 -144.5t-83 -109.5t-127 -69.5t-161.5 -24.5q-86 0 -161 21.5 t-128 64.5t-84 108.5t-31 153.5zM1131 326q0 -123 53 -196.5t154 -73.5q205 0 205 270t-205 270q-100 0 -153.5 -67.5t-53.5 -202.5z" />
<glyph unicode="&#x26;" horiz-adv-x="2000" d="M1239 252q-70 55 -150 130l-157 152q-76 77 -139.5 148.5t-98.5 118.5q-96 -84 -141 -165t-45 -187q0 -78 28.5 -144.5t80 -115t123 -76t155.5 -27.5q100 0 188 41t156 125zM653 1194q0 -37 16.5 -78t42 -83t57.5 -80t60 -68q84 61 129.5 138t45.5 194q0 66 -43 110.5 t-134 44.5q-49 0 -82.5 -15.5t-53 -41t-29 -57t-9.5 -64.5zM1597 0l-119 71q-73 42 -159 113q-31 -37 -80 -73.5t-113.5 -67.5t-145.5 -49.5t-173 -18.5q-125 0 -224.5 34t-168 89.5t-105.5 127t-37 149.5q0 100 41 180t97.5 141.5t118.5 103.5l106 68q-66 66 -112 153 t-46 163q0 51 22.5 101t67.5 88t110.5 61.5t149.5 23.5q154 0 248 -59.5t94 -169.5q0 -68 -26.5 -125t-67.5 -106.5t-93 -90.5t-103 -76q94 -104 217 -213.5l260 -220.5q16 20 40.5 66.5t47 110t39 138t16.5 152.5v29q0 14 -2 29h-135v102h471v-102h-154 q-20 -119 -51 -217.5t-64.5 -173t-65.5 -127t-50 -76.5q86 -63 170 -118.5t186 -107.5h125v-102h-332z" />
<glyph unicode="'" horiz-adv-x="512" d="M199 1434h200l-55 -404h-90z" />
<glyph unicode="(" horiz-adv-x="796" d="M698 -430q-117 74 -219 164t-178 201.5t-120 251t-44 311.5q0 168 45 304t122 248.5t180.5 207t220.5 180.5l57 -62q-92 -88 -169 -177t-132 -191.5t-86 -227.5t-31 -282q0 -152 33 -278t89 -230.5t131 -191.5t161 -160z" />
<glyph unicode=")" horiz-adv-x="796" d="M41 -369q86 74 160.5 165t131 200.5t88.5 240t32 281.5q0 158 -31 279t-86 221t-132 185t-169 173l57 62q119 -78 222.5 -169t180 -202t120.5 -246t44 -303q0 -170 -42 -310t-117.5 -257t-178 -211t-225.5 -170z" />
<glyph unicode="*" horiz-adv-x="1069" d="M944 1034l-127 -221l-211 231l33 58zM815 1419l127 -225l-301 -55l-37 51zM399 1522h263l-97 -303h-71zM115 1194l139 225l205 -227l-33 -53zM252 813l-137 221l313 72l31 -59zM662 715h-263l95 303h71z" />
<glyph unicode="+" d="M139 760h414v428h123v-428h414v-111h-414v-440h-123v440h-414v111z" />
<glyph unicode="," horiz-adv-x="653" d="M125 -295q43 14 79 44t63.5 67t43 80t15.5 86v18h-144q-20 33 -28.5 61.5t-8.5 57.5q0 35 10.5 65.5t26.5 61.5h258q20 -51 28.5 -99.5t8.5 -93.5q0 -82 -25.5 -151.5t-69.5 -123.5t-100.5 -91t-117.5 -54z" />
<glyph unicode="-" horiz-adv-x="972" d="M164 643h647v-131h-647v131z" />
<glyph unicode="." horiz-adv-x="643" d="M164 119q0 63 43 100t115 37t116.5 -37t44.5 -100q0 -61 -45 -98t-116 -37q-72 0 -115 37t-43 98z" />
<glyph unicode="/" horiz-adv-x="790" d="M750 1460l100 -39l-840 -1687l-98 41z" />
<glyph unicode="0" d="M76 717q0 369 140 555t398 186q276 0 407.5 -183t131.5 -558q0 -369 -141.5 -555.5t-411.5 -186.5q-141 0 -240.5 50.5t-162 145.5t-92 232.5t-29.5 313.5zM305 717q0 -147 15.5 -268t51.5 -207t91 -133.5t135 -47.5q180 0 253 159t73 497q0 147 -13.5 268t-49.5 207 t-95 133t-152 47q-170 0 -239.5 -158.5t-69.5 -496.5z" />
<glyph unicode="1" d="M981 0h-678v131h234v1155l-242 -127l-55 101l297 174h215v-1303h229v-131z" />
<glyph unicode="2" d="M348 1092h-196v227q80 61 192.5 98t247.5 37q115 0 198.5 -28.5t138 -77t80 -111.5t25.5 -135q0 -129 -63.5 -258t-159.5 -244t-211 -211t-219 -164l-45 -28l-33 -22l-22 -15v-8l133 12h475l41 41v196h131v-401h-930v172q53 31 124 82t146.5 118.5t149.5 148.5t131 170 t93 182.5t36 187.5q0 59 -17.5 110.5t-51 90t-84 60t-113.5 21.5q-68 0 -112 -10t-85 -26v-215z" />
<glyph unicode="3" d="M555 90q76 0 137.5 23.5t106.5 64.5t69.5 95.5t24.5 117.5q0 74 -26.5 130.5t-72.5 94t-107.5 57t-131.5 19.5h-145v139l460 443v8l-122 -12h-412l-41 -41v-164h-131v369h885v-160l-385 -361l-48 -43l-33 -30q-15 -14 -20 -17v-4q2 0 14.5 2t26.5 6q16 4 37 7 q109 -4 197 -32t151.5 -80t97 -127t33.5 -173q0 -102 -44 -184t-119.5 -139.5t-178 -88t-219.5 -30.5q-53 0 -113.5 8t-118 21.5t-107.5 32.5t-83 44v242h197v-183q29 -20 89 -37.5t132 -17.5z" />
<glyph unicode="4" d="M1122 0h-602v131h211v264h-702v131l702 908h215v-908h254v-131h-254v-264h176v-131zM731 1124l14 148h-6l-80 -148l-426 -544l-75 -68l147 14h426v598z" />
<glyph unicode="5" d="M897 1536h131v-266h-625v-389h132q115 0 211 -29t164.5 -82t106.5 -133t38 -180q0 -119 -46 -208t-122 -149.5t-175.5 -90t-203.5 -29.5q-94 0 -184.5 20t-155.5 68v219h197v-178l61 -12q39 -7 80 -7q76 0 137.5 23.5t105.5 66.5t67.5 101.5t23.5 130.5q0 82 -33 140 t-90.5 96t-134 55.5t-164.5 17.5h-146v713h584l41 41v61z" />
<glyph unicode="6" d="M1157 434q0 -96 -37 -180t-103.5 -145.5t-160.5 -97.5t-211 -36q-129 0 -229.5 40t-168 112t-102 170t-34.5 215q0 193 70.5 350.5t189 276t272.5 196.5t320 113l28 -102q-106 -31 -213.5 -86.5t-196.5 -135.5t-151.5 -184t-77.5 -233q18 27 52 53t79 46.5t101.5 34 t120.5 13.5q98 0 182 -28.5t143.5 -82t93 -131.5t33.5 -178zM928 416q0 147 -77 237t-216 90q-109 0 -182.5 -47t-108.5 -106q-4 -29 -4 -68v-61q0 -66 19.5 -134.5t58.5 -125t99.5 -93t139.5 -36.5q72 0 123 29.5t84 78.5t48.5 111t15.5 125z" />
<glyph unicode="7" d="M276 1063h-131v371h963v-162l-514 -1272h-217l565 1184l70 96l-117 -10h-578l-41 -41v-166z" />
<glyph unicode="8" d="M113 322q0 70 25.5 132t71.5 114.5t107.5 94.5t133.5 72q-129 59 -204 143.5t-75 219.5q0 80 32 145.5t91 113.5t144 74.5t190 26.5q205 0 318.5 -91t113.5 -234q0 -119 -77 -218.5t-210 -148.5q162 -78 255 -175t93 -241q0 -78 -33.5 -145.5t-100 -118.5t-163 -81 t-221.5 -30t-217 29t-153.5 76t-91 110.5t-29.5 131.5zM911 313q0 70 -30.5 125.5t-83 99.5t-119 80.5t-139.5 67.5q-63 -35 -106.5 -77t-69 -88t-36 -91t-10.5 -84q0 -49 16.5 -98t52.5 -88t94.5 -63.5t142.5 -24.5q72 0 126 21.5t89.5 55t54 77.5t18.5 87zM383 1126 q0 -61 24.5 -109t66.5 -85t97.5 -67.5t116.5 -57.5q96 70 132 138.5t36 152.5q0 127 -60.5 195.5t-170.5 68.5q-61 0 -106.5 -20.5t-75 -53.5t-45 -75t-15.5 -87z" />
<glyph unicode="9" d="M106 997q0 100 35 184.5t100.5 146t162 96t219.5 34.5q135 0 232 -40t161.5 -111.5t95.5 -175t31 -228.5q0 -190 -65.5 -351t-178.5 -283t-263.5 -196.5t-322.5 -92.5l-28 102q270 53 424.5 217t191.5 395q-53 -49 -126 -82.5t-193 -33.5q-104 0 -191.5 27.5t-150 81.5 t-98.5 132t-36 178zM336 999q0 -59 20.5 -115.5t58.5 -99.5t92 -69.5t122 -26.5q106 0 178 33t106 84q4 27 5.5 65.5t1.5 63.5q0 74 -16.5 150.5t-53.5 138t-95.5 100.5t-140.5 39q-137 0 -207.5 -97.5t-70.5 -265.5z" />
<glyph unicode=":" horiz-adv-x="753" d="M275 903q0 63 43 100t115 37t116.5 -37t44.5 -100q0 -61 -45 -98t-116 -37q-72 0 -115 37t-43 98zM275 119q0 63 43 100t115 37t116.5 -37t44.5 -100q0 -61 -45 -98t-116 -37q-72 0 -115 37t-43 98z" />
<glyph unicode=";" horiz-adv-x="763" d="M283 903q0 63 43 100t115 37t116.5 -37t44.5 -100q0 -61 -45 -98t-116 -37q-72 0 -115 37t-43 98zM244 -295q43 14 79 44t63.5 67t43 80t15.5 86v18h-144q-20 33 -28.5 61.5t-8.5 57.5q0 35 10.5 65.5t26.5 61.5h258q20 -51 28.5 -99.5t8.5 -93.5q0 -82 -25.5 -151.5 t-69.5 -123.5t-100.5 -91t-117.5 -54z" />
<glyph unicode="&#x3c;" d="M106 664v63l883 481l62 -121l-719 -380l731 -381l-76 -115z" />
<glyph unicode="=" d="M96 926h1034v-111h-1034v111zM96 594h1034v-111h-1034v111z" />
<glyph unicode="&#x3e;" d="M1128 756v-64l-884 -481l-68 113l725 397l-731 375l76 112z" />
<glyph unicode="?" horiz-adv-x="1087" d="M356 1122h-196v248q86 47 180 67.5t205 20.5q242 0 354.5 -109.5t112.5 -304.5q0 -90 -32 -167.5t-92.5 -139t-146.5 -103.5t-196 -56v-205h-131v291q92 18 160.5 46.5t114.5 73.5t69.5 109.5t23.5 155.5q0 55 -14 109t-45 97t-79 70t-116 27q-72 0 -111.5 -11.5 t-60.5 -27.5v-191zM317 119q0 63 43 100t115 37t117 -37t45 -100q0 -61 -45 -98t-117 -37t-115 37t-43 98z" />
<glyph unicode="@" horiz-adv-x="2275" d="M1622 1004l-117 -584v-303h27q92 0 171 40t135 112.5t89 174t33 224.5q0 156 -62.5 281.5t-169 214.5t-251 136.5t-306.5 47.5q-195 0 -352 -65.5t-269 -181.5t-173.5 -271.5t-61.5 -333.5q0 -182 72 -322.5t190.5 -236t271 -145.5t314.5 -50q66 0 151 14.5t154 42.5 l37 -94q-82 -41 -178 -57.5t-213 -16.5q-104 0 -215 23.5t-214 71t-194.5 119t-159 165.5t-107.5 213t-40 260q0 223 80 403.5t216 307.5t317.5 195.5t384.5 68.5q193 0 359.5 -54t288.5 -155.5t191.5 -248t69.5 -332.5q0 -121 -34 -241t-108.5 -214t-193.5 -152.5 t-289 -58.5q-35 0 -68.5 3t-72.5 7v361h-12q-27 -66 -71 -129.5t-101.5 -115.5t-122 -84t-131.5 -32q-137 0 -212 85t-75 227q0 129 48 253.5t131 223t192.5 158t232.5 59.5q82 0 133.5 -13.5t104.5 -35.5zM1403 870q-35 20 -74 30.5t-94 10.5q-88 0 -165 -54t-134 -137 t-91 -183.5t-34 -190.5q0 -98 35 -151.5t127 -53.5q43 0 93 37t99 97.5t95.5 135t82.5 152.5z" />
<glyph unicode="A" horiz-adv-x="1546" d="M502 0h-502v115h160l530 1319h217l486 -1319h153v-115h-585v115h182l-133 360h-545l-139 -360h176v-115zM512 590h463l-168 473l-51 217h-8l-60 -221z" />
<glyph unicode="B" horiz-adv-x="1413" d="M66 0v115h186v1204h-186v115h268q43 0 82 2t82 4t93 4t111 2q90 0 184.5 -13.5t170.5 -50t124 -103.5t48 -173q0 -55 -19.5 -108.5t-57.5 -98.5t-95.5 -80t-132.5 -51v-8q68 -10 135 -35t121.5 -67t87 -103t32.5 -147q0 -111 -54 -191t-142 -131t-199.5 -74.5 t-226.5 -23.5q-80 0 -179.5 6t-191.5 6h-241zM694 102q80 0 148.5 21.5t118 60.5t77 93.5t27.5 119.5q0 82 -34 136.5t-90 86t-132 44t-160 12.5h-168v-555q31 -8 75 -13.5t138 -5.5zM592 782q41 0 91 3t85 8q104 33 167.5 105.5t63.5 170.5q0 135 -86 198.5t-233 63.5 q-70 0 -118 -3t-81 -7v-539h111z" />
<glyph unicode="C" horiz-adv-x="1429" d="M1165 377h131v-322q-63 -35 -167.5 -57.5t-206.5 -22.5q-188 0 -338 43t-253.5 134.5t-158.5 230.5t-55 334q0 201 61.5 341t166 229t241.5 130t288 41q74 0 133.5 -5t107.5 -15.5t89 -24.5t80 -31v-350h-131v215l-29 41q-23 10 -70.5 24.5t-154.5 14.5q-111 0 -207 -35 t-166.5 -108.5t-111.5 -189t-41 -277.5q0 -293 148.5 -452t416.5 -159q74 0 124 11.5t75 29.5l28 39v191z" />
<glyph unicode="D" horiz-adv-x="1601" d="M66 0v115h186v1204h-186v115h251q39 0 91.5 2t107.5 5l105.5 6t85.5 3q190 0 335.5 -48t243.5 -139.5t148.5 -224.5t50.5 -303q0 -164 -47 -301t-147.5 -238.5t-257 -157.5t-374.5 -56q-33 0 -75.5 3t-90.5 6l-98 6q-49 3 -92 3h-237zM676 1335q-57 0 -110.5 -2t-84.5 -8 v-1221q12 -2 41 -3t62.5 -2l64.5 -2t43 -1q154 0 256.5 52.5t165 139.5t89 202.5t26.5 244.5q0 100 -25.5 207t-89 195t-170 143t-268.5 55z" />
<glyph unicode="E" horiz-adv-x="1320" d="M1155 1434v-336h-131v176l-41 45h-502v-531h346l31 31v86h131v-350h-131v86l-31 33h-346v-559h537l41 41v200h131v-356h-1124v115h186v1204h-186v115h1089z" />
<glyph unicode="F" horiz-adv-x="1275" d="M481 115h219v-115h-634v115h186v1204h-186v115h1108v-336h-132v176l-41 45h-520v-561h371l31 30v99h131v-375h-131v98l-31 33h-371v-528z" />
<glyph unicode="G" horiz-adv-x="1585" d="M1370 98q-43 -25 -98 -47t-115.5 -38.5t-122 -27t-119.5 -10.5q-190 0 -338.5 44t-251 135.5t-155.5 231.5t-53 331q0 201 64.5 342t171 230t244.5 129t284 40q152 0 250 -20.5t176 -55.5v-350h-131v215l-29 41q-18 10 -47 17.5t-60.5 12.5t-65.5 7t-63 2 q-113 0 -211 -35t-170.5 -108.5t-114.5 -189t-42 -277.5q0 -291 144.5 -451t414.5 -160q68 0 116 9.5t85 23.5l30 37v387h-217v115h567v-115h-143v-465z" />
<glyph unicode="H" horiz-adv-x="1679" d="M651 115v-115h-585v115h186v1204h-186v115h585v-115h-170v-526h717v526h-170v115h586v-115h-187v-1204h187v-115h-586v115h170v563h-717v-563h170z" />
<glyph unicode="I" horiz-adv-x="815" d="M709 0h-603v115h187v1204h-187v115h603v-115h-187v-1204h187v-115z" />
<glyph unicode="J" horiz-adv-x="778" d="M74 -231q35 16 67.5 39.5t58 65.5t41 109.5t15.5 176.5v1159h-170v115h586v-115h-187v-1139q0 -145 -37.5 -238.5t-93 -149.5t-119 -82.5t-114.5 -37.5z" />
<glyph unicode="K" horiz-adv-x="1458" d="M614 782l447 537h-166v115h506v-115h-162l-487 -547l579 -657h127v-115h-330l-538 680h-109v-565h170v-115h-585v115h186v1204h-186v115h585v-115h-170v-537h133z" />
<glyph unicode="L" horiz-adv-x="1247" d="M66 1319v115h636v-115h-221v-1204h545l41 45v282h147v-442h-1148v115h186v1204h-186z" />
<glyph unicode="M" horiz-adv-x="2015" d="M66 1319v115h466l484 -918l493 918h441v-115h-187v-1204h187v-115h-594v115h186v913q2 10 3 48t3 81q2 51 4 111h-18l-88 -219l-420 -742h-125l-409 742l-91 239h-20v-127q0 -47 1 -89t1 -44v-913h174v-115h-491v115h186v1204h-186z" />
<glyph unicode="N" horiz-adv-x="1679" d="M1110 1434h504v-115h-187v-1344h-133l-833 1125l-90 157h-9l21 -159v-983h186v-115h-503v115h186v1204h-186v115h409l717 -965l106 -176h11l-13 176v850h-186v115z" />
<glyph unicode="O" horiz-adv-x="1699" d="M117 717q0 160 49 296t142 235.5t229.5 154.5t310.5 55t311 -55t231.5 -154.5t143.5 -235.5t49 -296t-49 -296t-143.5 -235.5t-231.5 -155t-311 -55.5t-310.5 55.5t-229.5 155t-142 235.5t-49 296zM373 717q0 -131 29.5 -246t91 -199t154.5 -133t220 -49q117 0 203 49 t142.5 133t85 199t28.5 246t-29.5 245.5t-91 198.5t-155 133t-222.5 49q-123 0 -210 -49t-142 -133t-79.5 -198.5t-24.5 -245.5z" />
<glyph unicode="P" horiz-adv-x="1366" d="M66 1319v115h213q92 0 199.5 8t207.5 8q113 0 221.5 -21.5t192.5 -72.5t136 -136t52 -212q0 -121 -53 -208t-140 -142.5t-201 -82t-235 -26.5h-36q-25 0 -52.5 1t-52 3t-37.5 4v-442h205v-115h-620v115h186v1204h-186zM481 674q10 -4 32 -5t46.5 -3t47.5 -2h36 q80 0 150.5 19t124 60t84 106.5t30.5 158.5q0 168 -105.5 247.5t-287.5 79.5q-55 0 -92 -3t-66 -9v-649z" />
<glyph unicode="Q" horiz-adv-x="1699" d="M1759 -268q-90 -76 -193.5 -111t-213.5 -35q-94 0 -204 35t-230.5 79t-249.5 86t-265 56l17 82q49 6 96 6q117 0 231.5 -25.5t231.5 -56t235.5 -56t241.5 -25.5q66 0 133.5 10t136.5 33zM117 717q0 160 49 296t142 235.5t229.5 154.5t310.5 55t311 -55t231.5 -154.5 t143.5 -235.5t49 -296t-49 -296t-143.5 -235.5t-231.5 -155t-311 -55.5t-310.5 55.5t-229.5 155t-142 235.5t-49 296zM373 717q0 -131 29.5 -246t91 -199t154.5 -133t220 -49q117 0 203 49t142.5 133t85 199t28.5 246t-29.5 245.5t-91 198.5t-155 133t-222.5 49 q-123 0 -210 -49t-142 -133t-79.5 -198.5t-24.5 -245.5z" />
<glyph unicode="R" horiz-adv-x="1449" d="M481 115h176v-115h-591v115h186v1204h-186v115h206q92 0 201 8t213 8q113 0 212 -23.5t171 -72.5t114 -126t42 -184q0 -147 -91.5 -250.5t-238.5 -146.5l408 -532h127v-115h-332l-408 618h-209v-503zM643 725q158 0 247 86t89 233q0 152 -94 221.5t-250 69.5 q-53 0 -89 -4t-65 -8v-598h162z" />
<glyph unicode="S" horiz-adv-x="1220" d="M258 201l37 -49q37 -27 101.5 -44.5t142.5 -17.5q74 0 136 15.5t109 46t74 77.5t27 113q0 84 -56.5 139.5t-140.5 98.5t-182 84t-182 96t-140.5 133t-56.5 197q0 174 132 271t357 97q141 0 244 -18.5t174 -48.5v-353h-131v222l-33 51q-39 16 -112.5 24t-145.5 8 q-123 0 -192.5 -56t-69.5 -159q0 -84 56.5 -140t140.5 -101t182 -87t182 -96.5t140.5 -130t56.5 -188.5q0 -199 -153.5 -304.5t-419.5 -105.5q-145 0 -252 31t-156 66v372h131v-243z" />
<glyph unicode="T" horiz-adv-x="1429" d="M1040 0h-651v115h211v1204h-367l-40 -45v-264h-148v424h1339v-424h-147v264l-41 45h-367v-1204h211v-115z" />
<glyph unicode="U" horiz-adv-x="1560" d="M1350 489q0 -131 -39 -226t-110 -157.5t-171 -93t-223 -30.5q-291 0 -443.5 115.5t-152.5 357.5v864h-186v115h581v-115h-166v-821q0 -106 27 -179t77 -117t123.5 -63.5t168.5 -19.5q180 0 281.5 90t101.5 295v815h-166v115h483v-115h-186v-830z" />
<glyph unicode="V" horiz-adv-x="1579" d="M1257 1319h-186v115h508v-115h-168l-475 -1319h-227l-533 1319h-176v115h629v-115h-197l369 -957l59 -194h8l62 199z" />
<glyph unicode="W" horiz-adv-x="2162" d="M1837 1319h-178v115h504v-115h-170l-342 -1319h-238l-319 1135l-322 -1135h-237l-359 1319h-176v115h612v-115h-194l219 -877l53 -272h8l80 276q0 2 13 47l32 113l45 159l52 181l139 488h151l291 -988l64 -272h10l61 277z" />
<glyph unicode="X" horiz-adv-x="1548" d="M920 1434h516v-115h-168l-402 -551l471 -653h187v-115h-596v115h149l-360 506l-340 -506h158v-115h-515v115h173l448 606l-430 598h-182v115h610v-115h-164l318 -457l307 457h-180v115z" />
<glyph unicode="Y" horiz-adv-x="1488" d="M979 1434h510v-115h-174l-436 -711v-493h186v-115h-602v115h186v491l-463 713h-186v115h618v-115h-172l371 -596l350 596h-188v115z" />
<glyph unicode="Z" horiz-adv-x="1376" d="M82 115l938 1204h-698l-41 -45v-256h-148v416h1149v-115l-938 -1204h762l41 45v256h147v-416h-1212v115z" />
<glyph unicode="[" horiz-adv-x="708" d="M188 1434h441v-86h-236v-1733h236v-86h-441v1905z" />
<glyph unicode="\" horiz-adv-x="876" d="M940 -219l-119 -55l-932 1685l119 59z" />
<glyph unicode="]" horiz-adv-x="708" d="M520 -471h-440v86h235v1733h-235v86h440v-1905z" />
<glyph unicode="^" d="M582 1456h80l391 -567h-209l-258 407l-299 -407h-131z" />
<glyph unicode="_" horiz-adv-x="942" d="M0 -289h942v-112h-942v112z" />
<glyph unicode="`" horiz-adv-x="704" d="M582 1260l-58 -48l-401 240v84h258z" />
<glyph unicode="a" horiz-adv-x="1165" d="M950 285q0 -47 2 -95.5t6 -87.5h136v-102h-322l-20 195h-11q-10 -41 -37.5 -80t-69.5 -70t-99.5 -49.5t-126.5 -18.5q-70 0 -128.5 20.5t-101.5 57.5t-66.5 89.5t-23.5 117.5q0 100 42 166t124 103.5t205 54t286 18.5q4 33 5 63v58q0 127 -43 193.5t-154 66.5 q-41 0 -88 -4t-86 -25v-188h-184v227q74 39 174 70t235 31q117 0 187.5 -30t108.5 -78t49.5 -108.5t11.5 -119.5q0 -129 -5.5 -246.5t-5.5 -228.5zM502 115q49 0 88 15t68.5 39t51 52.5t35.5 54.5v244q-133 0 -216 -17.5t-130 -46t-64.5 -68.5t-17.5 -85q0 -92 49.5 -140 t135.5 -48z" />
<glyph unicode="b" horiz-adv-x="1257" d="M174 1434h-174v102h389v-672h6q39 109 131 170.5t207 61.5q209 0 320.5 -131t111.5 -408q0 -285 -154.5 -431t-441.5 -146q-57 0 -115.5 7t-112.5 18t-97 25.5t-70 30.5v1373zM666 958q-111 0 -177.5 -66.5t-99.5 -170.5v-596q41 -23 99.5 -36t125.5 -13q152 0 236 123 t84 358q0 84 -14.5 157.5t-47 128t-82.5 85t-124 30.5z" />
<glyph unicode="c" horiz-adv-x="1071" d="M987 137q-43 -59 -136 -109.5t-220 -50.5q-135 0 -236.5 40t-169 113t-100.5 176.5t-33 230.5q0 272 144.5 415.5t392.5 143.5q113 0 186.5 -14.5t134.5 -45.5v-266h-184v197q-31 18 -123 18q-78 0 -137.5 -22.5t-100 -73.5t-61 -137t-20.5 -211q0 -82 22.5 -157 t67.5 -131t113.5 -89t160.5 -33q49 0 87 10.5t66.5 21.5t51 25.5t43.5 30.5z" />
<glyph unicode="d" horiz-adv-x="1280" d="M856 213q-12 -47 -40 -90t-67.5 -76t-91 -51.5t-110.5 -18.5q-227 0 -341 134.5t-114 418.5q0 137 38 243t107.5 177.5t168 108.5t219.5 37q43 0 73.5 -2t57 -6.5t51.5 -11.5l53 -15v373h-174v102h389v-1434h139v-102h-331l-19 213h-8zM594 115q113 0 176.5 63.5 t89.5 175.5v604q-41 20 -91 30.5t-132 10.5q-76 0 -134.5 -32.5t-98 -94t-60 -148.5t-20.5 -194q0 -86 15 -161.5t48 -132t84 -89t123 -32.5z" />
<glyph unicode="e" horiz-adv-x="1159" d="M1022 141q-53 -76 -150.5 -120t-226.5 -44q-135 0 -238.5 40t-173 113t-105.5 176.5t-36 230.5q0 274 137.5 416.5t384.5 142.5q82 0 161 -20.5t140.5 -67.5t99.5 -125t38 -193q0 -35 -4.5 -73.5t-12.5 -81.5h-712q0 -90 23.5 -164t71.5 -127.5t119.5 -83t170.5 -29.5 q80 0 148.5 26.5t109.5 61.5zM606 999q-63 0 -111.5 -18t-83 -61t-55 -114t-26.5 -175h493q2 18 3 37.5t1 36.5q0 135 -54 214.5t-167 79.5z" />
<glyph unicode="f" horiz-adv-x="788" d="M711 1536q72 0 128 -12.5t85 -22.5v-198h-197v131q-68 0 -118 -12.5t-82.5 -47.5t-49 -95t-16.5 -159v-45h262v-131h-262v-842h219v-102h-586v102h152v842h-174v131h174v33q0 207 124 317.5t341 110.5z" />
<glyph unicode="g" horiz-adv-x="1212" d="M1192 1075v-131h-240q29 -29 53.5 -80t24.5 -123q0 -152 -118.5 -243.5t-342.5 -91.5q-41 0 -69.5 1t-61.5 9q-10 -20 -25.5 -44t-15.5 -50q0 -43 53.5 -64.5t133.5 -39t174 -35t175 -51.5t134 -89t53 -145q0 -78 -40 -136.5t-112.5 -96.5t-173 -56.5t-219.5 -18.5 q-256 0 -382.5 68t-126.5 186q0 115 77.5 176.5t218.5 102.5q-53 23 -85.5 49.5t-32.5 79.5q0 25 12 50.5t32.5 49t45 43t47.5 31.5q-131 35 -201.5 119t-70.5 200q0 150 116.5 240t343.5 90h623zM905 -152q0 68 -48 108t-120.5 65.5t-156.5 42t-158 38.5 q-86 -51 -113.5 -103t-27.5 -112q0 -86 86 -143t249 -57q84 0 139.5 13t89.5 35.5t47 51t13 61.5zM324 745q0 -53 12 -98t39.5 -76.5t75 -50t118.5 -18.5q131 0 188.5 66.5t57.5 176.5q0 43 -3 72t-8 51.5t-11 39.5l-13 36q-47 20 -100 27.5t-111 7.5q-139 0 -192 -57.5 t-53 -176.5z" />
<glyph unicode="h" horiz-adv-x="1353" d="M1315 0h-502v102h135v504q0 170 -45 261t-160 91q-61 0 -114.5 -20t-94 -53t-70.5 -73t-44 -79v-631h135v-102h-502v102h152v1332h-174v102h389v-678h2q47 100 148.5 169t242.5 69q80 0 145.5 -19.5t110.5 -71t69.5 -137.5t24.5 -219v-547h152v-102z" />
<glyph unicode="i" horiz-adv-x="694" d="M610 0h-518v102h152v871h-152v102h367v-973h151v-102zM199 1407q0 59 42 94t107 35q70 0 110 -35t40 -94t-40 -94t-110 -35q-66 0 -107.5 35t-41.5 94z" />
<glyph unicode="j" horiz-adv-x="667" d="M244 973h-152v102h367v-948q0 -154 -42 -254t-99.5 -162.5t-116 -92.5t-90.5 -40l-56 88q27 12 59.5 38t61.5 73t48.5 121.5t19.5 187.5v887zM197 1407q0 59 42 94t107 35q70 0 110 -35t40 -94t-40 -94t-110 -35q-66 0 -107.5 35t-41.5 94z" />
<glyph unicode="k" horiz-adv-x="1191" d="M649 1075h451v-102h-131l-318 -367l418 -504h102v-102h-294l-381 510h-76v-408h151v-102h-518v102h152v1332h-174v102h389v-944h72l313 381h-156v102z" />
<glyph unicode="l" horiz-adv-x="694" d="M610 0h-518v102h152v1332h-174v102h389v-1434h151v-102z" />
<glyph unicode="m" horiz-adv-x="1988" d="M1264 0h-496v102h133v498q0 86 -7 153.5t-28.5 112.5t-62.5 68.5t-107 23.5q-49 0 -90 -17t-73.5 -48t-56 -71t-38.5 -85v-635h133v-102h-499v102h151v871h-151v102h366v-217h2q35 100 124 169t218 69q53 0 105.5 -10.5t95.5 -39t75 -78.5t44 -132q20 51 54 98t80 83 t103.5 57.5t124.5 21.5q84 0 146.5 -20.5t104.5 -71t62.5 -137.5t20.5 -222v-543h152v-102h-500v102h133v537q0 76 -8 136.5t-30.5 100t-63.5 61t-109 21.5q-109 0 -169 -66.5t-87 -174.5v-615h148v-102z" />
<glyph unicode="n" horiz-adv-x="1372" d="M1333 0h-502v102h136v514q0 162 -49.5 252t-180.5 90q-57 0 -105 -18t-86 -49t-65.5 -72t-42.5 -86v-631h135v-102h-501v102h151v871h-151v102h366v-213h2q47 98 138.5 166t220.5 68q92 0 163.5 -19.5t119.5 -71t74 -137.5t26 -219v-547h151v-102z" />
<glyph unicode="o" horiz-adv-x="1273" d="M92 537q0 135 39 239.5t109.5 175t172 107.5t224.5 37q143 0 246.5 -40t169 -113t97.5 -176t32 -230q0 -135 -38 -238.5t-108.5 -174.5t-172 -107.5t-226.5 -36.5q-139 0 -241.5 39.5t-170 112.5t-100.5 175.5t-33 229.5zM324 537q0 -98 18 -182.5t60 -146t109 -97 t163 -35.5q121 0 198.5 110.5t77.5 350.5q0 98 -18.5 183t-58 147.5t-102 97t-153.5 34.5q-135 0 -214.5 -110t-79.5 -352z" />
<glyph unicode="p" horiz-adv-x="1302" d="M588 -410h-518v103h151v1280h-151v102h366v-215h2q45 109 128 172.5t218 63.5q203 0 314.5 -125t111.5 -410q0 -135 -37.5 -243.5t-108.5 -184.5t-170 -116t-222 -40q-41 0 -73 2.5t-58.5 6.5t-52 12t-52.5 18v-323h152v-103zM705 958q-111 0 -175.5 -62t-93.5 -177v-600 q41 -27 91.5 -36t134.5 -9q76 0 135 35.5t100 100t62.5 154t21.5 197.5q0 88 -14.5 161t-46 125t-84.5 81.5t-131 29.5z" />
<glyph unicode="q" horiz-adv-x="1261" d="M854 190q-16 -43 -45 -80.5t-69 -67.5t-91 -47.5t-114 -17.5q-217 0 -330 135.5t-113 415.5q0 281 149.5 424.5t430.5 143.5q61 0 122.5 -6.5t116 -16.5t98.5 -21.5t68 -23.5v-1335h152v-103h-518v103h151v497h-8zM594 115q111 0 175.5 63.5t92.5 173.5v617 q-41 10 -97 20t-128 10q-152 0 -232.5 -111.5t-80.5 -352.5q0 -90 14 -167t46 -133.5t83 -88t127 -31.5z" />
<glyph unicode="r" horiz-adv-x="886" d="M582 891q-47 -25 -78 -57.5t-66 -94.5v-637h180v-102h-546v102h151v871h-151v102h366v-207h8q35 68 82 118t107 89h196v-184h-249z" />
<glyph unicode="s" horiz-adv-x="995" d="M680 244q0 55 -41 97t-102.5 78t-133 71.5t-133 81.5t-102.5 108.5t-41 150.5q0 59 28.5 107.5t77 83.5t114 54.5t138.5 19.5q61 0 108.5 -4.5t86.5 -11.5t73.5 -17t71.5 -23v-276h-131v162l-39 45q-27 6 -57.5 10t-65.5 4q-98 0 -146 -38t-48 -95q0 -55 41 -96 t102.5 -77t133 -71t133 -79t102.5 -101t41 -137q0 -74 -34 -131.5t-92 -97t-137 -61t-167 -21.5q-98 0 -191.5 25.5t-146.5 60.5v268h131v-156l41 -43q27 -20 63.5 -32.5t96.5 -12.5q98 0 161.5 41t63.5 113z" />
<glyph unicode="t" horiz-adv-x="856" d="M35 1075h182v256h215v-256h340v-131h-340v-598q0 -129 33 -182t106 -53q63 0 109.5 22.5t85.5 48.5l51 -80q-18 -18 -50 -39.5t-73 -40t-91 -30.5t-103 -12q-137 0 -210 70.5t-73 234.5v659h-182v131z" />
<glyph unicode="u" horiz-adv-x="1325" d="M178 426q0 135 6 276.5t6 270.5h-151v102h364q-4 -160 -7 -306t-3 -304q0 -84 9.5 -148.5t35 -109.5t70.5 -67.5t115 -22.5q102 0 171.5 65.5t106.5 175.5v615h-149v102h364v-973h152v-102h-342l-15 233h-10q-10 -43 -40 -88t-75 -81.5t-104 -60t-129 -23.5 q-92 0 -161.5 19t-117 70.5t-72 137.5t-24.5 219z" />
<glyph unicode="v" horiz-adv-x="1169" d="M487 0l-393 973h-117v102h488v-102h-137l245 -645l54 -224h10l57 224l230 645h-125v102h393v-102h-127l-356 -973h-222z" />
<glyph unicode="w" horiz-adv-x="1679" d="M360 0l-260 973h-123v102h484v-102h-137l170 -690l24 -158h12l31 160l246 764h162l209 -719l45 -205h10l39 201l162 647h-127v102h395v-102h-129l-270 -973h-240l-164 612q-2 2 -7 30t-13 63q-8 39 -21 88h-12l-25 -88l-18 -62q-8 -27 -8 -31l-209 -612h-226z" />
<glyph unicode="x" horiz-adv-x="1200" d="M692 575l363 -473h121v-102h-500v102h137l-252 357l-254 -357h113v-102h-395v102h129l342 430l-344 441h-113v102h491v-102h-133l236 -326l229 326h-112v102h385v-102h-127z" />
<glyph unicode="y" horiz-adv-x="1163" d="M96 973h-121v102h529v-102h-172l278 -680l41 -156h11l38 158l220 678h-125v102h393v-102h-131l-336 -973q-29 -84 -62.5 -154.5t-65.5 -125t-61.5 -88t-50.5 -42.5h-207v185h209q14 16 26.5 32.5t25 41t26.5 60.5t33 91h-76z" />
<glyph unicode="z" horiz-adv-x="1124" d="M1006 371v-371h-889v102l674 871h-445l-41 -41v-205h-131v348h852v-102l-678 -871h486l40 41v228h132z" />
<glyph unicode="{" horiz-adv-x="800" d="M307 225q0 104 -47 164t-137 60v65q90 0 137 62.5t47 152.5v488q0 98 55.5 157.5t165.5 59.5h211v-86h-108q-61 0 -90 -29t-29 -94v-477q0 -68 -24.5 -115t-61.5 -77t-82 -45t-86 -19v-13q39 -4 84 -20.5t83 -49t62.5 -80.5t24.5 -114v-477q0 -63 28.5 -93t94.5 -30h104 v-86h-211q-102 0 -161.5 54.5t-59.5 160.5v481z" />
<glyph unicode="|" horiz-adv-x="544" d="M211 1434h121v-1700h-121v1700z" />
<glyph unicode="}" horiz-adv-x="800" d="M494 739q0 -104 48 -163.5t136 -59.5v-65q-88 0 -136 -62.5t-48 -152.5v-490q0 -98 -55.5 -157.5t-168.5 -59.5h-209v86h109q61 0 90 28.5t29 94.5v479q0 68 20.5 115t54 76.5t74.5 45t82 19.5v12q-41 4 -82 20.5t-73.5 49.5t-54 81t-21.5 114v475q0 63 -28 93t-93 30 h-107v86h211q102 0 162 -54.5t60 -160.5v-480z" />
<glyph unicode="~" d="M125 678q84 111 168 144.5t156 33.5q59 0 113 -21.5t107.5 -48t106.5 -48t111 -21.5q43 0 87 15.5t91 53.5l39 -65q-66 -86 -134.5 -111.5t-133.5 -25.5q-59 0 -115.5 21.5t-112 48t-111 48t-110.5 21.5q-51 0 -101 -21.5t-104 -85.5z" />
<glyph unicode="&#xa1;" horiz-adv-x="753" d="M355.024 586.027l76.9951 -362.978v-624.962h-214.986v624.962l75.9951 362.978h61.9961zM482.017 913.007q0 -62.9961 -43.9971 -99.9932q-43.998 -36.998 -113.993 -36.998q-71.9961 0 -116.993 36.998q-44.9971 36.9971 -44.9971 99.9932q0 60.9971 44.9971 97.9941 q44.9971 36.998 116.993 36.998q69.9951 0 113.993 -36.998q43.9971 -36.9971 43.9971 -97.9941z" />
<glyph unicode="&#xa2;" d="M1120 160q-20 -37 -56 -70t-84 -58.5t-104.5 -41t-119.5 -15.5v-323h-131v332q-109 12 -198 55t-153.5 111.5t-99.5 160.5t-35 201q0 127 35 227.5t99.5 172t153.5 115.5t198 60v265h131v-256q111 0 179.5 -16.5t129.5 -45.5v-342h-131v281q-6 4 -23.5 9t-40 10t-47 8.5 t-49.5 3.5h-22v-902q8 0 16 -1t16 -1q78 0 147.5 29t137.5 94zM371 551q0 -145 65.5 -253t196.5 -159v848q-117 -33 -189.5 -144.5t-72.5 -291.5z" />
<glyph unicode="&#xa3;" d="M70 780h194q-35 66 -61.5 137.5t-26.5 176.5q0 84 35 151.5t97.5 114.5t149.5 72.5t193 25.5q141 0 248 -19.5t172 -47.5v-353h-131v236l-41 49l-43 11q-20 5 -48 8.5t-65.5 4.5t-93.5 1q-49 0 -95 -14.5t-81 -43t-55.5 -70.5t-20.5 -98q0 -104 31 -185l59 -157h355v-106 h-314q16 -51 20.5 -102.5t4.5 -108.5q0 -33 -5 -64.5t-23.5 -66.5t-53.5 -74t-92 -88h571l41 41v190h131v-401h-1046v68q147 55 220 135t73 203q0 66 -11.5 128t-40.5 140h-247v106z" />
<glyph unicode="&#xa4;" d="M82 350l190 166l78 25q-33 35 -45 76.5t-12 91.5q0 47 14.5 90t42.5 78l-78 24l-188 168l125 115l188 -170l29 -70q41 27 87 41t101 14q115 -4 189 -55l28 70l187 168l127 -115l-189 -166l-77 -22q29 -35 42 -78t15 -92q0 -100 -57 -170l77 -23l189 -168l-129 -115 l-187 168l-26 70q-78 -49 -189 -49q-55 0 -102 13.5t-92 35.5l-23 -68l-190 -167zM614 541q84 0 139.5 47t55.5 121t-55.5 123t-139.5 49t-139 -49.5t-55 -122.5q0 -74 55 -121t139 -47z" />
<glyph unicode="&#xa5;" d="M827 1434h506v-103h-176l-362 -645h325v-106h-370v-129h370v-107h-370v-242h186v-102h-602v102h186v242h-370v107h370v129h-370v106h323l-395 645h-187v103h621v-103h-176l350 -612l328 612h-187v103z" />
<glyph unicode="&#xa6;" horiz-adv-x="544" d="M211 389h121v-655h-121v655zM332 778h-121v656h121v-656z" />
<glyph unicode="&#xa7;" horiz-adv-x="1218" d="M799 88q0 61 -49.5 98t-123 65t-159.5 53.5t-160 64.5t-123 98t-49 156q0 51 23.5 95t64.5 81t95.5 66.5t117.5 54.5q-47 20 -89 44.5t-72.5 58.5t-49 78t-18.5 101q0 55 27.5 102.5t77.5 81t121 53t157 19.5q123 0 212 -12t163 -35v-209h-148v129q-25 10 -72 23.5 t-100 13.5q-61 0 -104 -13.5t-71 -34t-40 -47t-12 -52.5q0 -61 49 -100.5t123 -70t160 -59t159.5 -66.5t122.5 -94.5t49 -140.5q0 -59 -27.5 -107t-70.5 -86t-95 -69t-102 -51q45 -18 86 -40t72 -50.5t48.5 -64.5t17.5 -83q0 -72 -32 -128t-91.5 -96t-143.5 -61.5 t-186 -21.5q-199 0 -373 62v215h148v-129q25 -16 84 -37t137 -21q111 0 178.5 49t67.5 117zM870 639q0 49 -27.5 84t-73.5 61.5t-105 48.5l-121 44q-37 -16 -73 -39t-63.5 -49.5t-44 -57.5t-16.5 -63q0 -53 28.5 -92t76 -68t107.5 -50.5t124 -41.5q37 20 70.5 48t60.5 57.5 t42 59t15 58.5z" />
<glyph unicode="&#xa8;" horiz-adv-x="1011" d="M123 1409q0 59 36 95t95 36t95 -36t36 -95q0 -55 -36 -91t-95 -36t-95 36t-36 91zM627 1409q0 59 37.5 95t95.5 36q59 0 94 -36t35 -95q0 -55 -35 -91t-94 -36q-57 0 -95 36t-38 91z" />
<glyph unicode="&#xa9;" horiz-adv-x="1857" d="M160 594q0 170 63.5 304t170 226.5t245.5 141.5t289 49t286 -49t239 -141.5t163.5 -226.5t60.5 -304t-60.5 -304t-163.5 -226.5t-239.5 -141.5t-285.5 -49q-166 0 -306.5 49t-244 141.5t-160.5 226.5t-57 304zM270 594q0 -141 49.5 -256t137.5 -196t208.5 -126t262.5 -45 q143 0 261 45t202 126t130 196t46 256t-49.5 256t-135.5 196.5t-202.5 126t-251.5 44.5q-152 0 -272.5 -45.5t-207 -126t-132.5 -195.5t-46 -256zM1116 424h94v-205q-41 -29 -100 -40t-125 -11q-111 0 -204 27.5t-160.5 82t-105.5 134.5t-38 184q0 106 42 186t109.5 133.5 t153.5 81t174 27.5q92 0 153.5 -11.5t109.5 -33.5v-223h-103v159q-6 4 -23.5 8.5t-38 7.5t-43 5t-38.5 2q-129 0 -202 -91t-73 -251q0 -68 16.5 -130.5t52.5 -109.5t93.5 -74.5t136.5 -27.5q43 0 76 10t43 19v141z" />
<glyph unicode="&#xaa;" horiz-adv-x="991" d="M197 1229l-13 149l60.5 24.5t73.5 21t96.5 13.5t128.5 5q147 0 202.5 -53.5t55.5 -153.5q0 -39 -1 -87l-2 -97l-2 -93.5t-1 -76.5h114v-103h-252l-20 121h-10q-12 -18 -33 -43t-52.5 -45t-78.5 -34.5t-111 -14.5q-106 0 -172.5 50t-66.5 140q0 63 35.5 103.5t97 63 t143.5 31.5t172 9q16 0 31.5 -1t32.5 -1q2 12 2 36v34q0 27 -6.5 51.5t-24.5 43.5t-50 30.5t-81 11.5q-27 0 -58.5 -5t-64.5 -16v-114h-145zM422 858q47 0 81 13.5t58.5 32t38.5 40l25 39.5v107q-23 2 -47 2h-48q-45 0 -87 -7.5t-73.5 -22.5t-50 -40t-18.5 -57q0 -41 31 -74 t90 -33z" />
<glyph unicode="&#xab;" horiz-adv-x="1085" d="M504 530l391 422l59 -41l-243 -366l256 -387l-56 -43zM55 530l494 426l59 -43l-317 -370l332 -387l-62 -45z" />
<glyph unicode="&#xac;" d="M137 795h979v-389h-145v258h-834v131z" />
<glyph unicode="&#xad;" horiz-adv-x="972" d="M164 643h647v-131h-647v131z" />
<glyph unicode="&#xae;" horiz-adv-x="1607" d="M223 924q0 131 47 233.5t127 172t185.5 105t222.5 35.5q121 0 227.5 -35.5t185 -105t125 -172t46.5 -233.5q0 -133 -47.5 -234.5t-128 -171t-186 -105.5t-222.5 -36q-115 0 -219.5 36t-185.5 105.5t-129 171t-48 234.5zM322 924q0 -106 39.5 -191.5t106.5 -146t154 -92 t183 -31.5q100 0 188 31.5t154.5 91t104.5 144.5t38 194q0 106 -40 191t-106.5 144.5t-154.5 92t-184 32.5q-102 0 -190.5 -32.5t-154 -92t-102 -144.5t-36.5 -191zM729 702h82v-69h-287v69h80v474h-80v69h90q41 0 98.5 4t94.5 4q51 0 99 -9t84 -30.5t57.5 -54.5t21.5 -78 q0 -63 -44 -105t-107 -61l149 -213h55v-69h-157l-156 274h-80v-205zM797 1186q-27 0 -40.5 -1t-27.5 -5v-211h72q133 0 133 112q0 53 -39 79t-98 26z" />
<glyph unicode="&#xaf;" horiz-adv-x="835" d="M123 1368v113h590v-113h-590z" />
<glyph unicode="&#xb0;" horiz-adv-x="970" d="M207 1169q0 63 22.5 116.5t63.5 91.5t97 59.5t124 21.5q135 0 222 -72.5t87 -216.5q0 -135 -87 -211.5t-222 -76.5q-68 0 -124 19.5t-97 57t-63.5 90.5t-22.5 121zM330 1169q0 -82 53 -134t131 -52q88 0 137 48t49 138q0 86 -50 136.5t-136 50.5q-88 0 -136 -50.5 t-48 -136.5z" />
<glyph unicode="&#xb1;" d="M98 1006h455v428h123v-428h454v-111h-454v-313h-123v313h-455v111zM98 473h1032v-111h-1032v111z" />
<glyph unicode="&#xb2;" horiz-adv-x="983" d="M293 1296h-131v254q35 23 67.5 41.5t71.5 32.5t88 21.5t119 7.5q88 0 148.5 -19.5t97.5 -51.5t53 -75t16 -92q0 -68 -36.5 -136.5t-104.5 -134t-161 -126t-204 -111.5v-12l72 12h352v139h131v-268h-737v129q94 47 182.5 102.5t157 117t110.5 127t42 132.5q0 39 -8.5 69 t-30 51.5t-58 32.5t-94.5 11q-41 0 -76.5 -6t-66.5 -22v-226z" />
<glyph unicode="&#xb3;" horiz-adv-x="983" d="M473 860q55 0 94 14.5t63.5 37t36 50t11.5 54.5q0 86 -54.5 123t-179.5 37h-77v65l299 295h-390v-193h-131v295h684v-102l-301 -268v-2l72 8q55 0 104.5 -15.5t87 -45t60 -74.5t22.5 -105q0 -133 -115.5 -201.5t-312.5 -68.5q-94 0 -182 32.5t-147 71.5v148h184v-109 q20 -12 61 -29.5t111 -17.5z" />
<glyph unicode="&#xb4;" horiz-adv-x="704" d="M324 1536h258v-84l-402 -240l-57 48z" />
<glyph unicode="&#xb5;" horiz-adv-x="1337" d="M362 -410h-172v1383h-151v102h367v-610q0 -84 9 -149.5t34.5 -111.5t70.5 -69.5t115 -23.5q102 0 172 68.5t106 178.5v615h-151v102h366v-973h152v-102h-358v233h-11q-10 -43 -38.5 -89t-73.5 -83.5t-103.5 -62.5t-126.5 -25q-72 0 -117.5 16.5t-89.5 49.5v-449z" />
<glyph unicode="&#x3bc;" horiz-adv-x="1337" d="M362 -410h-172v1383h-151v102h367v-610q0 -84 9 -149.5t34.5 -111.5t70.5 -69.5t115 -23.5q102 0 172 68.5t106 178.5v615h-151v102h366v-973h152v-102h-358v233h-11q-10 -43 -38.5 -89t-73.5 -83.5t-103.5 -62.5t-126.5 -25q-72 0 -117.5 16.5t-89.5 49.5v-449z" />
<glyph unicode="&#xb6;" horiz-adv-x="1212" d="M909 193q0 -137 -24.5 -224.5t-67.5 -139.5t-101.5 -77.5t-125.5 -38.5q-47 -66 -108.5 -98.5t-121.5 -48.5l-47 67q51 18 94.5 46t74 74t48 118t17.5 178v586q-74 0 -146.5 20.5t-131 66.5t-95.5 121t-37 181q0 86 29 161t86 130t144 87t204 32h481v-103h-172v-1138z M635 -193q72 27 107.5 115t35.5 271v1138h-100v-1282q0 -82 -8 -140.5t-35 -101.5z" />
<glyph unicode="&#xb7;" horiz-adv-x="550" d="M121 631q0 63 43 100t115 37t116.5 -37t44.5 -100q0 -61 -45 -98t-116 -37q-72 0 -115 37t-43 98z" />
<glyph unicode="&#xb8;" horiz-adv-x="626" d="M256 -125q129 -4 188.5 -36t59.5 -99q0 -66 -36 -104.5t-91 -59t-123 -28t-131 -7.5v66q43 2 79 6t60.5 14.5t37.5 28.5t13 51q0 53 -47 65.5t-141 20.5l86 209h104z" />
<glyph unicode="&#xb9;" horiz-adv-x="983" d="M840 778h-645v103h229v632l-203 -75l-45 92l248 108h186v-757h230v-103z" />
<glyph unicode="&#xba;" horiz-adv-x="1003" d="M98 1110q0 80 31 143.5t84 109.5t128 70.5t161 24.5q88 0 161.5 -21.5t127 -64.5t83 -108.5t29.5 -153.5q0 -80 -29.5 -144.5t-83 -109.5t-127 -69.5t-161.5 -24.5q-86 0 -161 21.5t-128 64.5t-84 108.5t-31 153.5zM295 1110q0 -123 53 -196.5t154 -73.5q205 0 205 270 t-205 270q-100 0 -153.5 -67.5t-53.5 -202.5z" />
<glyph unicode="&#xbb;" horiz-adv-x="1085" d="M180 115l-59 43l256 377l-244 376l60 41l391 -422zM526 111l-63 45l336 376l-322 381l60 43l495 -426z" />
<glyph unicode="&#xbc;" horiz-adv-x="2160" d="M805 573h-645v103h229v632l-203 -75l-45 92l248 108h186v-757h230v-103zM1730 1462l84 -78l-1345 -1404l-80 79zM1927 0h-492v103h183v141h-512v102l512 514h172v-514h194v-102h-194v-141h137v-103zM1618 705l-367 -359h367v359z" />
<glyph unicode="&#xbd;" horiz-adv-x="2312" d="M805 573h-645v103h229v632l-203 -75l-45 92l248 108h186v-757h230v-103zM1730 1462l84 -78l-1345 -1404l-80 79zM1571 518h-131v254q35 23 67.5 41.5t71.5 32.5t88 21.5t119 7.5q88 0 148.5 -19.5t97.5 -51.5t53 -75t16 -92q0 -68 -36.5 -136.5t-104.5 -134t-161 -126 t-204 -111.5v-12l72 12h352v139h131v-268h-737v129q94 47 182.5 102.5t157 117t110.5 127t42 132.5q0 39 -8.5 69t-30 51.5t-58 32.5t-94.5 11q-41 0 -76.5 -6t-66.5 -22v-226z" />
<glyph unicode="&#xbe;" horiz-adv-x="2275" d="M532 655q55 0 94 14.5t63.5 37t36 50t11.5 54.5q0 86 -54.5 123t-179.5 37h-77v65l299 295h-390v-193h-131v295h684v-102l-301 -268v-2l72 8q55 0 104.5 -15.5t87 -45t60 -74.5t22.5 -105q0 -133 -115.5 -201.5t-312.5 -68.5q-94 0 -182 32.5t-147 71.5v148h184v-109 q20 -12 61 -29.5t111 -17.5zM1845 1462l84 -78l-1345 -1404l-80 79zM2044 0h-492v103h183v141h-512v102l512 514h172v-514h194v-102h-194v-141h137v-103zM1735 705l-367 -359h367v359z" />
<glyph unicode="&#xbf;" horiz-adv-x="1087" d="M721.021 -89.9316h195.988v-247.984q-85.9951 -46.9971 -179.989 -67.4961t-204.987 -20.499q-241.985 0 -354.479 109.493t-112.493 304.481q0 89.9951 31.998 167.49t92.4941 138.991q60.4971 61.4961 146.491 103.494q85.9951 41.9971 195.988 55.9961v204.987 h130.992v-290.981q-91.9941 -17.999 -160.49 -46.498q-68.4961 -28.498 -114.493 -73.4951t-69.4961 -109.493q-23.498 -64.4961 -23.498 -155.49q0 -54.9971 13.999 -108.994q13.999 -53.9961 44.9971 -96.9941q30.998 -42.9971 78.9951 -69.9951 q47.9971 -26.999 115.993 -26.999q71.9951 0 111.493 11.5q39.498 11.499 60.4961 27.498v190.988zM760.02 913.007q0 -62.9961 -42.998 -99.9932q-42.9971 -36.998 -114.992 -36.998q-71.9961 0 -116.993 36.998q-44.9971 36.9971 -44.9971 99.9932 q0 60.9971 44.9971 97.9941q44.9971 36.998 116.993 36.998q71.9951 0 114.992 -36.998q42.998 -36.9971 42.998 -97.9941z" />
<glyph unicode="&#xc0;" horiz-adv-x="1546" d="M502 0h-502v115h160l530 1319h217l486 -1319h153v-115h-585v115h182l-133 360h-545l-139 -360h176v-115zM512 590h463l-168 473l-51 217h-8l-60 -221zM887 1624l-27 -49l-524 147v82l252 68z" />
<glyph unicode="&#xc1;" horiz-adv-x="1546" d="M502 0h-502v115h160l530 1319h217l486 -1319h153v-115h-585v115h182l-133 360h-545l-139 -360h176v-115zM512 590h463l-168 473l-51 217h-8l-60 -221zM993 1872l252 -68v-82l-524 -147l-27 49z" />
<glyph unicode="&#xc2;" horiz-adv-x="1546" d="M502 0h-502v115h160l530 1319h217l486 -1319h153v-115h-585v115h182l-133 360h-545l-139 -360h176v-115zM512 590h463l-168 473l-51 217h-8l-60 -221zM500 1559l-33 40l291 273h63l289 -266l-37 -45l-291 114z" />
<glyph unicode="&#xc3;" horiz-adv-x="1546" d="M502 0h-502v115h160l530 1319h217l486 -1319h153v-115h-585v115h182l-133 360h-545l-139 -360h176v-115zM512 590h463l-168 473l-51 217h-8l-60 -221zM1155 1726q-74 -78 -134 -108.5t-120 -30.5q-43 0 -81 13.5t-75 28.5l-71 29q-35 13 -72 13q-29 0 -63.5 -13 t-71.5 -48l-45 73q88 86 155.5 117t127.5 31q43 0 79.5 -12.5t71.5 -27.5t68.5 -27.5t70.5 -12.5q29 0 63 10.5t68 38.5z" />
<glyph unicode="&#xc4;" horiz-adv-x="1546" d="M502 0h-502v115h160l530 1319h217l486 -1319h153v-115h-585v115h182l-133 360h-545l-139 -360h176v-115zM512 590h463l-168 473l-51 217h-8l-60 -221zM397 1630q0 59 38 89t95 30q59 0 98 -29.5t39 -89.5q0 -53 -39 -81.5t-98 -28.5q-57 0 -95 28.5t-38 81.5zM913 1630 q0 59 39 89t94 30q59 0 98 -29.5t39 -89.5q0 -53 -39 -81.5t-98 -28.5q-55 0 -94 28.5t-39 81.5z" />
<glyph unicode="&#xc5;" horiz-adv-x="1546" d="M502 0h-502v115h160l530 1319h217l486 -1319h153v-115h-585v115h182l-133 360h-545l-139 -360h176v-115zM512 590h463l-168 473l-51 217h-8l-60 -221zM531 1614q0 84 78 130t190 46q45 0 90 -10.5t81 -30.5t58.5 -52t22.5 -77q0 -41 -20.5 -71.5t-56.5 -53t-82 -34 t-95 -11.5q-119 0 -192.5 43t-73.5 121zM684 1614q0 -35 30 -56.5t71 -21.5q59 0 85.5 20.5t26.5 55.5q0 53 -30.5 72.5t-73.5 19.5q-55 0 -82 -25.5t-27 -64.5z" />
<glyph unicode="&#xc6;" horiz-adv-x="2103" d="M1931 1434v-336h-131v176l-41 45h-495v-531h346l30 31v86h132v-350h-132v86l-30 33h-346v-559h536l41 41v200h131v-356h-1118v115h180v403h-446l-264 -403h192v-115h-516v115h168l799 1204h-123v115h1087zM657 633h377v616h-4l-92 -190z" />
<glyph unicode="&#xc7;" horiz-adv-x="1429" d="M1165 377h131v-322q-63 -35 -167.5 -57.5t-206.5 -22.5h-15l-55 -106q139 -4 206.5 -38t67.5 -107q0 -61 -41 -100.5t-103 -61t-136 -29.5t-139 -8v67q45 2 82.5 7.5t66.5 15.5t45.5 27.5t16.5 46.5q0 55 -51.5 71.5t-153.5 20.5l82 201q-160 12 -286 62t-213 141 t-133 223.5t-46 308.5q0 201 61.5 341t166 229t241.5 130t288 41q74 0 133.5 -5t107.5 -15.5t89 -24.5t80 -31v-350h-131v215l-29 41q-23 10 -70.5 24.5t-154.5 14.5q-111 0 -207 -35t-166.5 -108.5t-111.5 -189t-41 -277.5q0 -293 148.5 -452t416.5 -159q74 0 124 11.5 t75 29.5l28 39v191z" />
<glyph unicode="&#xc8;" horiz-adv-x="1320" d="M1155 1434v-336h-131v176l-41 45h-502v-531h346l31 31v86h131v-350h-131v86l-31 33h-346v-559h537l41 41v200h131v-356h-1124v115h186v1204h-186v115h1089zM842 1624l-27 -49l-524 147v82l252 68z" />
<glyph unicode="&#xc9;" horiz-adv-x="1320" d="M1155 1434v-336h-131v176l-41 45h-502v-531h346l31 31v86h131v-350h-131v86l-31 33h-346v-559h537l41 41v200h131v-356h-1124v115h186v1204h-186v115h1089zM776 1872l252 -68v-82l-524 -147l-27 49z" />
<glyph unicode="&#xca;" horiz-adv-x="1320" d="M1155 1434v-336h-131v176l-41 45h-502v-531h346l31 31v86h131v-350h-131v86l-31 33h-346v-559h537l41 41v200h131v-356h-1124v115h186v1204h-186v115h1089zM371 1559l-33 40l291 273h63l289 -266l-37 -45l-291 114z" />
<glyph unicode="&#xcb;" horiz-adv-x="1320" d="M1155 1434v-336h-131v176l-41 45h-502v-531h346l31 31v86h131v-350h-131v86l-31 33h-346v-559h537l41 41v200h131v-356h-1124v115h186v1204h-186v115h1089zM277 1630q0 59 38 89t95 30q59 0 98 -29.5t39 -89.5q0 -53 -39 -81.5t-98 -28.5q-57 0 -95 28.5t-38 81.5z M793 1630q0 59 39 89t94 30q59 0 98 -29.5t39 -89.5q0 -53 -39 -81.5t-98 -28.5q-55 0 -94 28.5t-39 81.5z" />
<glyph unicode="&#xcc;" horiz-adv-x="815" d="M709 0h-603v115h187v1204h-187v115h603v-115h-187v-1204h187v-115zM635 1624l-27 -49l-524 147v82l252 68z" />
<glyph unicode="&#xcd;" horiz-adv-x="815" d="M709 0h-603v115h187v1204h-187v115h603v-115h-187v-1204h187v-115zM528 1872l252 -68v-82l-524 -147l-27 49z" />
<glyph unicode="&#xce;" horiz-adv-x="815" d="M709 0h-603v115h187v1204h-187v115h603v-115h-187v-1204h187v-115zM121 1559l-33 40l291 273h63l289 -266l-37 -45l-291 114z" />
<glyph unicode="&#xcf;" horiz-adv-x="815" d="M709 0h-603v115h187v1204h-187v115h603v-115h-187v-1204h187v-115zM17 1630q0 59 38 89t95 30q59 0 98 -29.5t39 -89.5q0 -53 -39 -81.5t-98 -28.5q-57 0 -95 28.5t-38 81.5zM533 1630q0 59 39 89t94 30q59 0 98 -29.5t39 -89.5q0 -53 -39 -81.5t-98 -28.5 q-55 0 -94 28.5t-39 81.5z" />
<glyph unicode="&#xd0;" horiz-adv-x="1601" d="M66 0v115h186v563h-205v110h205v531h-186v115h251q39 0 91.5 2t107.5 5l105.5 6t85.5 3q190 0 335.5 -48t243.5 -139.5t148.5 -224.5t50.5 -303q0 -164 -47 -301t-147.5 -238.5t-257 -157.5t-374.5 -56q-33 0 -75.5 3t-90.5 6l-98 6q-49 3 -92 3h-237zM676 1335 q-57 0 -110.5 -2t-84.5 -8v-537h367v-110h-367v-574q12 -2 41 -3t62.5 -2l64.5 -2t43 -1q154 0 256.5 52.5t165 139.5t89 202.5t26.5 244.5q0 100 -25.5 207t-89 195t-170 143t-268.5 55z" />
<glyph unicode="&#xd1;" horiz-adv-x="1679" d="M1110 1434h504v-115h-187v-1344h-133l-833 1125l-90 157h-9l21 -159v-983h186v-115h-503v115h186v1204h-186v115h409l717 -965l106 -176h11l-13 176v850h-186v115zM1214 1726q-74 -78 -134 -108.5t-120 -30.5q-43 0 -81 13.5t-75 28.5l-71 29q-35 13 -72 13 q-29 0 -63.5 -13t-71.5 -48l-45 73q88 86 155.5 117t127.5 31q43 0 79.5 -12.5t71.5 -27.5t68.5 -27.5t70.5 -12.5q29 0 63 10.5t68 38.5z" />
<glyph unicode="&#xd2;" horiz-adv-x="1699" d="M117 717q0 160 49 296t142 235.5t229.5 154.5t310.5 55t311 -55t231.5 -154.5t143.5 -235.5t49 -296t-49 -296t-143.5 -235.5t-231.5 -155t-311 -55.5t-310.5 55.5t-229.5 155t-142 235.5t-49 296zM373 717q0 -131 29.5 -246t91 -199t154.5 -133t220 -49q117 0 203 49 t142.5 133t85 199t28.5 246t-29.5 245.5t-91 198.5t-155 133t-222.5 49q-123 0 -210 -49t-142 -133t-79.5 -198.5t-24.5 -245.5zM1000 1624l-27 -49l-524 147v82l252 68z" />
<glyph unicode="&#xd3;" horiz-adv-x="1699" d="M117 717q0 160 49 296t142 235.5t229.5 154.5t310.5 55t311 -55t231.5 -154.5t143.5 -235.5t49 -296t-49 -296t-143.5 -235.5t-231.5 -155t-311 -55.5t-310.5 55.5t-229.5 155t-142 235.5t-49 296zM373 717q0 -131 29.5 -246t91 -199t154.5 -133t220 -49q117 0 203 49 t142.5 133t85 199t28.5 246t-29.5 245.5t-91 198.5t-155 133t-222.5 49q-123 0 -210 -49t-142 -133t-79.5 -198.5t-24.5 -245.5zM946 1872l252 -68v-82l-524 -147l-27 49z" />
<glyph unicode="&#xd4;" horiz-adv-x="1699" d="M117 717q0 160 49 296t142 235.5t229.5 154.5t310.5 55t311 -55t231.5 -154.5t143.5 -235.5t49 -296t-49 -296t-143.5 -235.5t-231.5 -155t-311 -55.5t-310.5 55.5t-229.5 155t-142 235.5t-49 296zM373 717q0 -131 29.5 -246t91 -199t154.5 -133t220 -49q117 0 203 49 t142.5 133t85 199t28.5 246t-29.5 245.5t-91 198.5t-155 133t-222.5 49q-123 0 -210 -49t-142 -133t-79.5 -198.5t-24.5 -245.5zM559 1559l-33 40l291 273h63l289 -266l-37 -45l-291 114z" />
<glyph unicode="&#xd5;" horiz-adv-x="1699" d="M117 717q0 160 49 296t142 235.5t229.5 154.5t310.5 55t311 -55t231.5 -154.5t143.5 -235.5t49 -296t-49 -296t-143.5 -235.5t-231.5 -155t-311 -55.5t-310.5 55.5t-229.5 155t-142 235.5t-49 296zM373 717q0 -131 29.5 -246t91 -199t154.5 -133t220 -49q117 0 203 49 t142.5 133t85 199t28.5 246t-29.5 245.5t-91 198.5t-155 133t-222.5 49q-123 0 -210 -49t-142 -133t-79.5 -198.5t-24.5 -245.5zM1214 1726q-74 -78 -134 -108.5t-120 -30.5q-43 0 -81 13.5t-75 28.5l-71 29q-35 13 -72 13q-29 0 -63.5 -13t-71.5 -48l-45 73 q88 86 155.5 117t127.5 31q43 0 79.5 -12.5t71.5 -27.5t68.5 -27.5t70.5 -12.5q29 0 63 10.5t68 38.5z" />
<glyph unicode="&#xd6;" horiz-adv-x="1699" d="M117 717q0 160 49 296t142 235.5t229.5 154.5t310.5 55t311 -55t231.5 -154.5t143.5 -235.5t49 -296t-49 -296t-143.5 -235.5t-231.5 -155t-311 -55.5t-310.5 55.5t-229.5 155t-142 235.5t-49 296zM373 717q0 -131 29.5 -246t91 -199t154.5 -133t220 -49q117 0 203 49 t142.5 133t85 199t28.5 246t-29.5 245.5t-91 198.5t-155 133t-222.5 49q-123 0 -210 -49t-142 -133t-79.5 -198.5t-24.5 -245.5zM457 1630q0 59 38 89t95 30q59 0 98 -29.5t39 -89.5q0 -53 -39 -81.5t-98 -28.5q-57 0 -95 28.5t-38 81.5zM973 1630q0 59 39 89t94 30 q59 0 98 -29.5t39 -89.5q0 -53 -39 -81.5t-98 -28.5q-55 0 -94 28.5t-39 81.5z" />
<glyph unicode="&#xd7;" d="M201 420l319 285l-315 282l90 80l317 -283l320 287l90 -80l-324 -284l328 -291l-90 -82l-326 293l-319 -287z" />
<glyph unicode="&#xd8;" horiz-adv-x="1699" d="M117 717q0 160 49 296t142 235.5t229.5 154.5t310.5 55q111 0 206 -23.5t175 -64.5l106 152l107 -72l-107 -152q121 -100 184.5 -249.5t63.5 -331.5q0 -160 -49 -296t-143.5 -235.5t-231.5 -155t-311 -55.5q-219 0 -383 88l-127 -180l-102 74l124 178q-119 100 -181 249 t-62 333zM1327 717q0 123 -25.5 230.5t-78.5 191.5l-664 -942q59 -53 135 -82t174 -29q117 0 203 49t142.5 135t85 201t28.5 246zM373 717q0 -123 24.5 -229.5t77.5 -190.5l662 942q-59 51 -135 80t-173 29q-123 0 -210 -49.5t-142 -135.5t-79.5 -200.5t-24.5 -245.5z" />
<glyph unicode="&#xd9;" horiz-adv-x="1560" d="M1350 489q0 -131 -39 -226t-110 -157.5t-171 -93t-223 -30.5q-291 0 -443.5 115.5t-152.5 357.5v864h-186v115h581v-115h-166v-821q0 -106 27 -179t77 -117t123.5 -63.5t168.5 -19.5q180 0 281.5 90t101.5 295v815h-166v115h483v-115h-186v-830zM918 1624l-27 -49 l-524 147v82l252 68z" />
<glyph unicode="&#xda;" horiz-adv-x="1560" d="M1350 489q0 -131 -39 -226t-110 -157.5t-171 -93t-223 -30.5q-291 0 -443.5 115.5t-152.5 357.5v864h-186v115h581v-115h-166v-821q0 -106 27 -179t77 -117t123.5 -63.5t168.5 -19.5q180 0 281.5 90t101.5 295v815h-166v115h483v-115h-186v-830zM1055 1872l252 -68v-82 l-524 -147l-27 49z" />
<glyph unicode="&#xdb;" horiz-adv-x="1560" d="M1350 489q0 -131 -39 -226t-110 -157.5t-171 -93t-223 -30.5q-291 0 -443.5 115.5t-152.5 357.5v864h-186v115h581v-115h-166v-821q0 -106 27 -179t77 -117t123.5 -63.5t168.5 -19.5q180 0 281.5 90t101.5 295v815h-166v115h483v-115h-186v-830zM537 1559l-33 40l291 273 h63l289 -266l-37 -45l-291 114z" />
<glyph unicode="&#xdc;" horiz-adv-x="1560" d="M1350 489q0 -131 -39 -226t-110 -157.5t-171 -93t-223 -30.5q-291 0 -443.5 115.5t-152.5 357.5v864h-186v115h581v-115h-166v-821q0 -106 27 -179t77 -117t123.5 -63.5t168.5 -19.5q180 0 281.5 90t101.5 295v815h-166v115h483v-115h-186v-830zM436 1630q0 59 38 89 t95 30q59 0 98 -29.5t39 -89.5q0 -53 -39 -81.5t-98 -28.5q-57 0 -95 28.5t-38 81.5zM952 1630q0 59 39 89t94 30q59 0 98 -29.5t39 -89.5q0 -53 -39 -81.5t-98 -28.5q-55 0 -94 28.5t-39 81.5z" />
<glyph unicode="&#xdd;" horiz-adv-x="1488" d="M979 1434h510v-115h-174l-436 -711v-493h186v-115h-602v115h186v491l-463 713h-186v115h618v-115h-172l371 -596l350 596h-188v115zM1032 1872l252 -68v-82l-524 -147l-27 49z" />
<glyph unicode="&#xde;" horiz-adv-x="1363" d="M66 1319v115h598v-115h-183v-96q51 4 103.5 6t103.5 2q113 0 220.5 -21.5t191.5 -70.5t135 -132t51 -206q0 -117 -53 -200t-140 -137t-201 -80t-235 -26h-36q-25 0 -52 1l-51 2q-25 1 -37 4v-250h224v-115h-639v115h186v1204h-186zM637 1116q-55 0 -91 -3t-65 -9v-621 q10 -4 32 -5t46.5 -3t46.5 -2h35q80 0 150.5 18.5t124 58.5t84 101.5t30.5 149.5q0 160 -105.5 237.5t-287.5 77.5z" />
<glyph unicode="&#xdf;" horiz-adv-x="1472" d="M997 1206q-2 96 -69.5 157.5t-163.5 61.5q-70 0 -126 -13t-96 -52t-61.5 -107.5t-21.5 -181.5v-1071h-367v102h152v871h-172v102h172v33q0 123 51 205t127 131t164 70.5t164 21.5q125 0 212 -29.5t141 -79t78.5 -115t26.5 -138.5q-172 -23 -270 -77.5t-98 -152.5 q0 -66 41 -115t101 -91t132 -83t132.5 -91t101.5 -114.5t41 -152.5q0 -152 -113 -234.5t-318 -82.5q-49 0 -98 9t-93 23.5t-80 34t-58 37.5v188h147v-118q25 -23 76 -43.5t100 -20.5q111 0 168.5 43t57.5 131q0 57 -41 102.5t-101.5 86.5t-132.5 80.5t-132 88t-101 110 t-41 142.5q0 100 83.5 188.5t284.5 143.5z" />
<glyph unicode="&#xe0;" horiz-adv-x="1165" d="M950 285q0 -47 2 -95.5t6 -87.5h136v-102h-322l-20 195h-11q-10 -41 -37.5 -80t-69.5 -70t-99.5 -49.5t-126.5 -18.5q-70 0 -128.5 20.5t-101.5 57.5t-66.5 89.5t-23.5 117.5q0 100 42 166t124 103.5t205 54t286 18.5q4 33 5 63v58q0 127 -43 193.5t-154 66.5 q-41 0 -88 -4t-86 -25v-188h-184v227q74 39 174 70t235 31q117 0 187.5 -30t108.5 -78t49.5 -108.5t11.5 -119.5q0 -129 -5.5 -246.5t-5.5 -228.5zM502 115q49 0 88 15t68.5 39t51 52.5t35.5 54.5v244q-133 0 -216 -17.5t-130 -46t-64.5 -68.5t-17.5 -85q0 -92 49.5 -140 t135.5 -48zM746 1260l-58 -48l-401 240v84h258z" />
<glyph unicode="&#xe1;" horiz-adv-x="1165" d="M950 285q0 -47 2 -95.5t6 -87.5h136v-102h-322l-20 195h-11q-10 -41 -37.5 -80t-69.5 -70t-99.5 -49.5t-126.5 -18.5q-70 0 -128.5 20.5t-101.5 57.5t-66.5 89.5t-23.5 117.5q0 100 42 166t124 103.5t205 54t286 18.5q4 33 5 63v58q0 127 -43 193.5t-154 66.5 q-41 0 -88 -4t-86 -25v-188h-184v227q74 39 174 70t235 31q117 0 187.5 -30t108.5 -78t49.5 -108.5t11.5 -119.5q0 -129 -5.5 -246.5t-5.5 -228.5zM502 115q49 0 88 15t68.5 39t51 52.5t35.5 54.5v244q-133 0 -216 -17.5t-130 -46t-64.5 -68.5t-17.5 -85q0 -92 49.5 -140 t135.5 -48zM660 1536h258v-84l-402 -240l-57 48z" />
<glyph unicode="&#xe2;" horiz-adv-x="1165" d="M950 285q0 -47 2 -95.5t6 -87.5h136v-102h-322l-20 195h-11q-10 -41 -37.5 -80t-69.5 -70t-99.5 -49.5t-126.5 -18.5q-70 0 -128.5 20.5t-101.5 57.5t-66.5 89.5t-23.5 117.5q0 100 42 166t124 103.5t205 54t286 18.5q4 33 5 63v58q0 127 -43 193.5t-154 66.5 q-41 0 -88 -4t-86 -25v-188h-184v227q74 39 174 70t235 31q117 0 187.5 -30t108.5 -78t49.5 -108.5t11.5 -119.5q0 -129 -5.5 -246.5t-5.5 -228.5zM502 115q49 0 88 15t68.5 39t51 52.5t35.5 54.5v244q-133 0 -216 -17.5t-130 -46t-64.5 -68.5t-17.5 -85q0 -92 49.5 -140 t135.5 -48zM364 1268l-65 35l256 401h59l258 -399l-65 -37l-232 229z" />
<glyph unicode="&#xe3;" horiz-adv-x="1165" d="M950 285q0 -47 2 -95.5t6 -87.5h136v-102h-322l-20 195h-11q-10 -41 -37.5 -80t-69.5 -70t-99.5 -49.5t-126.5 -18.5q-70 0 -128.5 20.5t-101.5 57.5t-66.5 89.5t-23.5 117.5q0 100 42 166t124 103.5t205 54t286 18.5q4 33 5 63v58q0 127 -43 193.5t-154 66.5 q-41 0 -88 -4t-86 -25v-188h-184v227q74 39 174 70t235 31q117 0 187.5 -30t108.5 -78t49.5 -108.5t11.5 -119.5q0 -129 -5.5 -246.5t-5.5 -228.5zM502 115q49 0 88 15t68.5 39t51 52.5t35.5 54.5v244q-133 0 -216 -17.5t-130 -46t-64.5 -68.5t-17.5 -85q0 -92 49.5 -140 t135.5 -48zM913 1444q-74 -70 -136 -95.5t-113 -25.5q-41 0 -78 11.5t-72 24.5l-67.5 24.5t-67.5 11.5q-29 0 -60.5 -11.5t-68.5 -42.5l-45 66q86 74 152.5 100.5t119.5 26.5q41 0 77 -11.5t69 -23.5l65 -23q33 -11 68 -12q29 0 59.5 9.5t65.5 33.5z" />
<glyph unicode="&#xe4;" horiz-adv-x="1165" d="M950 285q0 -47 2 -95.5t6 -87.5h136v-102h-322l-20 195h-11q-10 -41 -37.5 -80t-69.5 -70t-99.5 -49.5t-126.5 -18.5q-70 0 -128.5 20.5t-101.5 57.5t-66.5 89.5t-23.5 117.5q0 100 42 166t124 103.5t205 54t286 18.5q4 33 5 63v58q0 127 -43 193.5t-154 66.5 q-41 0 -88 -4t-86 -25v-188h-184v227q74 39 174 70t235 31q117 0 187.5 -30t108.5 -78t49.5 -108.5t11.5 -119.5q0 -129 -5.5 -246.5t-5.5 -228.5zM502 115q49 0 88 15t68.5 39t51 52.5t35.5 54.5v244q-133 0 -216 -17.5t-130 -46t-64.5 -68.5t-17.5 -85q0 -92 49.5 -140 t135.5 -48zM174 1409q0 59 36 95t95 36t95 -36t36 -95q0 -55 -36 -91t-95 -36t-95 36t-36 91zM678 1409q0 59 37.5 95t95.5 36q59 0 94 -36t35 -95q0 -55 -35 -91t-94 -36q-57 0 -95 36t-38 91z" />
<glyph unicode="&#xe5;" horiz-adv-x="1165" d="M950 285q0 -47 2 -95.5t6 -87.5h136v-102h-322l-20 195h-11q-10 -41 -37.5 -80t-69.5 -70t-99.5 -49.5t-126.5 -18.5q-70 0 -128.5 20.5t-101.5 57.5t-66.5 89.5t-23.5 117.5q0 100 42 166t124 103.5t205 54t286 18.5q4 33 5 63v58q0 127 -43 193.5t-154 66.5 q-41 0 -88 -4t-86 -25v-188h-184v227q74 39 174 70t235 31q117 0 187.5 -30t108.5 -78t49.5 -108.5t11.5 -119.5q0 -129 -5.5 -246.5t-5.5 -228.5zM502 115q49 0 88 15t68.5 39t51 52.5t35.5 54.5v244q-133 0 -216 -17.5t-130 -46t-64.5 -68.5t-17.5 -85q0 -92 49.5 -140 t135.5 -48zM332 1468q0 88 65.5 148.5t165.5 60.5q92 0 154.5 -54t62.5 -148q0 -43 -18 -80t-48 -63.5t-70 -42t-83 -15.5q-104 0 -166.5 52t-62.5 142zM455 1473q0 -53 30.5 -81t67.5 -28q45 0 75 24.5t30 77.5q0 59 -29 90t-74 31q-53 0 -76.5 -30.5t-23.5 -83.5z" />
<glyph unicode="&#xe6;" horiz-adv-x="1792" d="M502 117q49 0 88 15t68.5 38t50 51.5t34.5 54.5v244q-131 0 -214 -17.5t-130 -46t-64.5 -68.5t-17.5 -85q0 -92 49.5 -139t135.5 -47zM801 215q-16 -27 -43 -66.5t-70 -77.5t-105.5 -64.5t-148.5 -26.5q-160 0 -253 76.5t-93 205.5q0 100 41 166t124 103.5t205 54 t285 18.5q6 63 7 121q0 127 -43 193.5t-154 66.5q-41 0 -88 -4t-86 -25v-188h-184v227q74 39 174 70t235 31q123 0 193.5 -32t107.5 -83q57 61 149.5 88t192.5 27q82 0 161 -20.5t140.5 -67.5t99.5 -125t38 -193q0 -35 -4.5 -73.5t-12.5 -81.5h-711q0 -90 24 -164t71 -127.5 t118.5 -83t169.5 -29.5q80 0 149 26.5t109 61.5l56 -78q-53 -76 -150.5 -120t-226.5 -44q-174 0 -292.5 62.5t-184.5 175.5zM1239 999q-63 0 -111.5 -18t-83 -61t-55 -114t-26.5 -175h493q2 18 3 37.5t1 36.5q0 135 -54 214.5t-167 79.5z" />
<glyph unicode="&#xe7;" horiz-adv-x="1071" d="M987 131q-43 -59 -135 -106.5t-215 -47.5h-8l-47 -102q129 -4 188 -34.5t59 -100.5q0 -66 -35.5 -104.5t-91 -60t-123 -28t-130.5 -6.5v66q43 2 78.5 6t60 14.5t38 28.5t13.5 51q0 53 -47 65.5t-141 20.5l77 191q-221 29 -328.5 176t-107.5 377q0 272 144.5 415.5 t392.5 143.5q113 0 186.5 -14.5t134.5 -45.5v-266h-184v197q-31 18 -123 18q-78 0 -137.5 -22.5t-100 -73.5t-61 -137t-20.5 -211q0 -82 22.5 -157t67.5 -131t113.5 -89t160.5 -33q49 0 87 7t66.5 18.5t51 26t43.5 30.5z" />
<glyph unicode="&#xe8;" horiz-adv-x="1159" d="M1022 141q-53 -76 -150.5 -120t-226.5 -44q-135 0 -238.5 40t-173 113t-105.5 176.5t-36 230.5q0 274 137.5 416.5t384.5 142.5q82 0 161 -20.5t140.5 -67.5t99.5 -125t38 -193q0 -35 -4.5 -73.5t-12.5 -81.5h-712q0 -90 23.5 -164t71.5 -127.5t119.5 -83t170.5 -29.5 q80 0 148.5 26.5t109.5 61.5zM606 999q-63 0 -111.5 -18t-83 -61t-55 -114t-26.5 -175h493q2 18 3 37.5t1 36.5q0 135 -54 214.5t-167 79.5zM764 1260l-58 -48l-401 240v84h258z" />
<glyph unicode="&#xe9;" horiz-adv-x="1159" d="M1022 141q-53 -76 -150.5 -120t-226.5 -44q-135 0 -238.5 40t-173 113t-105.5 176.5t-36 230.5q0 274 137.5 416.5t384.5 142.5q82 0 161 -20.5t140.5 -67.5t99.5 -125t38 -193q0 -35 -4.5 -73.5t-12.5 -81.5h-712q0 -90 23.5 -164t71.5 -127.5t119.5 -83t170.5 -29.5 q80 0 148.5 26.5t109.5 61.5zM606 999q-63 0 -111.5 -18t-83 -61t-55 -114t-26.5 -175h493q2 18 3 37.5t1 36.5q0 135 -54 214.5t-167 79.5zM695 1536h258v-84l-402 -240l-57 48z" />
<glyph unicode="&#xea;" horiz-adv-x="1159" d="M1022 141q-53 -76 -150.5 -120t-226.5 -44q-135 0 -238.5 40t-173 113t-105.5 176.5t-36 230.5q0 274 137.5 416.5t384.5 142.5q82 0 161 -20.5t140.5 -67.5t99.5 -125t38 -193q0 -35 -4.5 -73.5t-12.5 -81.5h-712q0 -90 23.5 -164t71.5 -127.5t119.5 -83t170.5 -29.5 q80 0 148.5 26.5t109.5 61.5zM606 999q-63 0 -111.5 -18t-83 -61t-55 -114t-26.5 -175h493q2 18 3 37.5t1 36.5q0 135 -54 214.5t-167 79.5zM383 1268l-65 35l256 401h59l258 -399l-65 -37l-232 229z" />
<glyph unicode="&#xeb;" horiz-adv-x="1159" d="M1022 141q-53 -76 -150.5 -120t-226.5 -44q-135 0 -238.5 40t-173 113t-105.5 176.5t-36 230.5q0 274 137.5 416.5t384.5 142.5q82 0 161 -20.5t140.5 -67.5t99.5 -125t38 -193q0 -35 -4.5 -73.5t-12.5 -81.5h-712q0 -90 23.5 -164t71.5 -127.5t119.5 -83t170.5 -29.5 q80 0 148.5 26.5t109.5 61.5zM606 999q-63 0 -111.5 -18t-83 -61t-55 -114t-26.5 -175h493q2 18 3 37.5t1 36.5q0 135 -54 214.5t-167 79.5zM211 1409q0 59 36 95t95 36t95 -36t36 -95q0 -55 -36 -91t-95 -36t-95 36t-36 91zM715 1409q0 59 37.5 95t95.5 36q59 0 94 -36 t35 -95q0 -55 -35 -91t-94 -36q-57 0 -95 36t-38 91z" />
<glyph unicode="&#xec;" horiz-adv-x="694" d="M610 0h-518v102h152v871h-152v102h367v-973h151v-102zM482 1260l-58 -48l-401 240v84h258z" />
<glyph unicode="&#xed;" horiz-adv-x="694" d="M610 0h-518v102h152v871h-152v102h367v-973h151v-102zM412 1536h258v-84l-402 -240l-57 48z" />
<glyph unicode="&#xee;" horiz-adv-x="694" d="M610 0h-518v102h152v871h-152v102h367v-973h151v-102zM127 1268l-65 35l256 401h59l258 -399l-65 -37l-232 229z" />
<glyph unicode="&#xef;" horiz-adv-x="694" d="M610 0h-518v102h152v871h-152v102h367v-973h151v-102zM-35 1409q0 59 36 95t95 36t95 -36t36 -95q0 -55 -36 -91t-95 -36t-95 36t-36 91zM469 1409q0 59 37.5 95t95.5 36q59 0 94 -36t35 -95q0 -55 -35 -91t-94 -36q-57 0 -95 36t-38 91z" />
<glyph unicode="&#xf0;" horiz-adv-x="1234" d="M477 1229l182 108q-92 80 -253 133l45 91q92 -16 179 -60.5t146 -87.5l207 131l57 -84l-186 -119q57 -59 110.5 -133.5t93.5 -166t64.5 -197t24.5 -223.5q0 -139 -34 -258t-101.5 -205t-169 -135.5t-238.5 -49.5q-127 0 -227.5 41t-170 113t-107.5 172t-38 221 q0 137 44.5 237.5t115 167t159.5 98.5t181 32q123 0 203 -22.5t131 -53.5q-29 80 -65.5 150.5t-102.5 130.5l-188 -115zM293 520q0 -88 21.5 -168t62.5 -141t102.5 -98t138.5 -37q150 0 232 138t82 376q0 113 -9.5 180.5t-17.5 95.5q-39 29 -114.5 51.5t-180.5 22.5 q-70 0 -128 -24.5t-100 -76t-65.5 -131t-23.5 -188.5z" />
<glyph unicode="&#xf1;" horiz-adv-x="1372" d="M1333 0h-502v102h136v514q0 162 -49.5 252t-180.5 90q-57 0 -105 -18t-86 -49t-65.5 -72t-42.5 -86v-631h135v-102h-501v102h151v871h-151v102h366v-213h2q47 98 138.5 166t220.5 68q92 0 163.5 -19.5t119.5 -71t74 -137.5t26 -219v-547h151v-102zM1042 1444 q-74 -70 -136 -95.5t-113 -25.5q-41 0 -78 11.5t-72 24.5l-67.5 24.5t-67.5 11.5q-29 0 -60.5 -11.5t-68.5 -42.5l-45 66q86 74 152.5 100.5t119.5 26.5q41 0 77 -11.5t69 -23.5l65 -23q33 -11 68 -12q29 0 59.5 9.5t65.5 33.5z" />
<glyph unicode="&#xf2;" horiz-adv-x="1273" d="M92 537q0 135 39 239.5t109.5 175t172 107.5t224.5 37q143 0 246.5 -40t169 -113t97.5 -176t32 -230q0 -135 -38 -238.5t-108.5 -174.5t-172 -107.5t-226.5 -36.5q-139 0 -241.5 39.5t-170 112.5t-100.5 175.5t-33 229.5zM324 537q0 -98 18 -182.5t60 -146t109 -97 t163 -35.5q121 0 198.5 110.5t77.5 350.5q0 98 -18.5 183t-58 147.5t-102 97t-153.5 34.5q-135 0 -214.5 -110t-79.5 -352zM801 1260l-58 -48l-401 240v84h258z" />
<glyph unicode="&#xf3;" horiz-adv-x="1273" d="M92 537q0 135 39 239.5t109.5 175t172 107.5t224.5 37q143 0 246.5 -40t169 -113t97.5 -176t32 -230q0 -135 -38 -238.5t-108.5 -174.5t-172 -107.5t-226.5 -36.5q-139 0 -241.5 39.5t-170 112.5t-100.5 175.5t-33 229.5zM324 537q0 -98 18 -182.5t60 -146t109 -97 t163 -35.5q121 0 198.5 110.5t77.5 350.5q0 98 -18.5 183t-58 147.5t-102 97t-153.5 34.5q-135 0 -214.5 -110t-79.5 -352zM715 1536h258v-84l-402 -240l-57 48z" />
<glyph unicode="&#xf4;" horiz-adv-x="1273" d="M92 537q0 135 39 239.5t109.5 175t172 107.5t224.5 37q143 0 246.5 -40t169 -113t97.5 -176t32 -230q0 -135 -38 -238.5t-108.5 -174.5t-172 -107.5t-226.5 -36.5q-139 0 -241.5 39.5t-170 112.5t-100.5 175.5t-33 229.5zM324 537q0 -98 18 -182.5t60 -146t109 -97 t163 -35.5q121 0 198.5 110.5t77.5 350.5q0 98 -18.5 183t-58 147.5t-102 97t-153.5 34.5q-135 0 -214.5 -110t-79.5 -352zM415 1268l-65 35l256 401h59l258 -399l-65 -37l-232 229z" />
<glyph unicode="&#xf5;" horiz-adv-x="1273" d="M92 537q0 135 39 239.5t109.5 175t172 107.5t224.5 37q143 0 246.5 -40t169 -113t97.5 -176t32 -230q0 -135 -38 -238.5t-108.5 -174.5t-172 -107.5t-226.5 -36.5q-139 0 -241.5 39.5t-170 112.5t-100.5 175.5t-33 229.5zM324 537q0 -98 18 -182.5t60 -146t109 -97 t163 -35.5q121 0 198.5 110.5t77.5 350.5q0 98 -18.5 183t-58 147.5t-102 97t-153.5 34.5q-135 0 -214.5 -110t-79.5 -352zM991 1444q-74 -70 -136 -95.5t-113 -25.5q-41 0 -78 11.5t-72 24.5l-67.5 24.5t-67.5 11.5q-29 0 -60.5 -11.5t-68.5 -42.5l-45 66 q86 74 152.5 100.5t119.5 26.5q41 0 77 -11.5t69 -23.5l65 -23q33 -11 68 -12q29 0 59.5 9.5t65.5 33.5z" />
<glyph unicode="&#xf6;" horiz-adv-x="1273" d="M92 537q0 135 39 239.5t109.5 175t172 107.5t224.5 37q143 0 246.5 -40t169 -113t97.5 -176t32 -230q0 -135 -38 -238.5t-108.5 -174.5t-172 -107.5t-226.5 -36.5q-139 0 -241.5 39.5t-170 112.5t-100.5 175.5t-33 229.5zM324 537q0 -98 18 -182.5t60 -146t109 -97 t163 -35.5q121 0 198.5 110.5t77.5 350.5q0 98 -18.5 183t-58 147.5t-102 97t-153.5 34.5q-135 0 -214.5 -110t-79.5 -352zM254 1409q0 59 36 95t95 36t95 -36t36 -95q0 -55 -36 -91t-95 -36t-95 36t-36 91zM758 1409q0 59 37.5 95t95.5 36q59 0 94 -36t35 -95 q0 -55 -35 -91t-94 -36q-57 0 -95 36t-38 91z" />
<glyph unicode="&#xf7;" d="M96 764h1034v-111h-1034v111zM455 1098q0 63 43 100t114 37q72 0 117 -37t45 -100q0 -61 -45 -98t-117 -37t-114.5 37t-42.5 98zM455 317q0 63 43 100.5t114 37.5q72 0 117 -37t45 -101q0 -61 -45 -98t-117 -37t-114.5 37t-42.5 98z" />
<glyph unicode="&#xf8;" horiz-adv-x="1273" d="M266 88q-88 76 -131 190.5t-43 258.5q0 135 39 239.5t109.5 175t172 107.5t224.5 37q88 0 161.5 -13.5t131.5 -44.5l104 152l92 -60l-108 -149q86 -78 125 -189.5t39 -254.5q0 -135 -38 -238.5t-108.5 -174.5t-172 -107.5t-226.5 -36.5q-82 0 -152.5 12t-128.5 41 l-114 -164l-88 57zM324 537q0 -82 13 -154t44 -131l459 659q-41 47 -95.5 67.5t-126.5 20.5q-135 0 -214.5 -110t-79.5 -352zM950 537q0 78 -12 147.5t-39 126.5l-457 -655q41 -43 98.5 -61.5t135.5 -18.5q121 0 197.5 110.5t76.5 350.5z" />
<glyph unicode="&#xf9;" horiz-adv-x="1325" d="M178 426q0 135 6 276.5t6 270.5h-151v102h364q-4 -160 -7 -306t-3 -304q0 -84 9.5 -148.5t35 -109.5t70.5 -67.5t115 -22.5q102 0 171.5 65.5t106.5 175.5v615h-149v102h364v-973h152v-102h-342l-15 233h-10q-10 -43 -40 -88t-75 -81.5t-104 -60t-129 -23.5 q-92 0 -161.5 19t-117 70.5t-72 137.5t-24.5 219zM826 1260l-58 -48l-401 240v84h258z" />
<glyph unicode="&#xfa;" horiz-adv-x="1325" d="M178 426q0 135 6 276.5t6 270.5h-151v102h364q-4 -160 -7 -306t-3 -304q0 -84 9.5 -148.5t35 -109.5t70.5 -67.5t115 -22.5q102 0 171.5 65.5t106.5 175.5v615h-149v102h364v-973h152v-102h-342l-15 233h-10q-10 -43 -40 -88t-75 -81.5t-104 -60t-129 -23.5 q-92 0 -161.5 19t-117 70.5t-72 137.5t-24.5 219zM734 1536h258v-84l-402 -240l-57 48z" />
<glyph unicode="&#xfb;" horiz-adv-x="1325" d="M178 426q0 135 6 276.5t6 270.5h-151v102h364q-4 -160 -7 -306t-3 -304q0 -84 9.5 -148.5t35 -109.5t70.5 -67.5t115 -22.5q102 0 171.5 65.5t106.5 175.5v615h-149v102h364v-973h152v-102h-342l-15 233h-10q-10 -43 -40 -88t-75 -81.5t-104 -60t-129 -23.5 q-92 0 -161.5 19t-117 70.5t-72 137.5t-24.5 219zM440 1268l-65 35l256 401h59l258 -399l-65 -37l-232 229z" />
<glyph unicode="&#xfc;" horiz-adv-x="1325" d="M178 426q0 135 6 276.5t6 270.5h-151v102h364q-4 -160 -7 -306t-3 -304q0 -84 9.5 -148.5t35 -109.5t70.5 -67.5t115 -22.5q102 0 171.5 65.5t106.5 175.5v615h-149v102h364v-973h152v-102h-342l-15 233h-10q-10 -43 -40 -88t-75 -81.5t-104 -60t-129 -23.5 q-92 0 -161.5 19t-117 70.5t-72 137.5t-24.5 219zM275 1409q0 59 36 95t95 36t95 -36t36 -95q0 -55 -36 -91t-95 -36t-95 36t-36 91zM779 1409q0 59 37.5 95t95.5 36q59 0 94 -36t35 -95q0 -55 -35 -91t-94 -36q-57 0 -95 36t-38 91z" />
<glyph unicode="&#xfd;" horiz-adv-x="1163" d="M96 973h-121v102h529v-102h-172l278 -680l41 -156h11l38 158l220 678h-125v102h393v-102h-131l-336 -973q-29 -84 -62.5 -154.5t-65.5 -125t-61.5 -88t-50.5 -42.5h-207v185h209q14 16 26.5 32.5t25 41t26.5 60.5t33 91h-76zM680 1536h258v-84l-402 -240l-57 48z" />
<glyph unicode="&#xfe;" horiz-adv-x="1302" d="M588 -410h-518v103h151v1741h-151v102h366v-676h2q45 109 128 172.5t218 63.5q203 0 314.5 -125t111.5 -410q0 -135 -37.5 -243.5t-108.5 -184.5t-170 -116t-222 -40q-41 0 -73 2.5t-58.5 6.5t-52 12t-52.5 18v-323h152v-103zM705 958q-111 0 -175.5 -62t-93.5 -177v-600 q41 -27 91.5 -36t134.5 -9q76 0 135 35.5t100 100t62.5 154t21.5 197.5q0 88 -14.5 161t-46 125t-84.5 81.5t-131 29.5z" />
<glyph unicode="&#xff;" horiz-adv-x="1163" d="M96 973h-121v102h529v-102h-172l278 -680l41 -156h11l38 158l220 678h-125v102h393v-102h-131l-336 -973q-29 -84 -62.5 -154.5t-65.5 -125t-61.5 -88t-50.5 -42.5h-207v185h209q14 16 26.5 32.5t25 41t26.5 60.5t33 91h-76zM221 1409q0 59 36 95t95 36t95 -36t36 -95 q0 -55 -36 -91t-95 -36t-95 36t-36 91zM725 1409q0 59 37.5 95t95.5 36q59 0 94 -36t35 -95q0 -55 -35 -91t-94 -36q-57 0 -95 36t-38 91z" />
<glyph unicode="&#x131;" horiz-adv-x="694" d="M610 0h-518v102h152v871h-152v102h367v-973h151v-102z" />
<glyph unicode="&#x152;" horiz-adv-x="2179" d="M848 1458q53 0 124.5 -6t137.5 -18h897v-336h-131v176l-41 45h-496v-531h347l30 31v86h131v-350h-131v86l-30 33h-347v-559h537l41 41v200h131v-356h-936q-59 -10 -130 -17.5t-134 -7.5q-174 0 -310.5 55.5t-229.5 155t-142 235.5t-49 296t49 296t142 235.5t229.5 154.5 t310.5 55zM868 86q59 0 122 9t120 32v1169q-59 23 -131 37.5t-150 14.5q-123 0 -210 -49.5t-142 -135.5t-79.5 -200.5t-24.5 -245.5t29.5 -246t91 -201t154.5 -135t220 -49z" />
<glyph unicode="&#x153;" horiz-adv-x="2015" d="M324 537q0 -98 18 -182.5t60 -146t110 -97t164 -35.5q121 0 198.5 110.5t77.5 350.5q0 98 -18.5 183t-58 147.5t-103 97t-154.5 34.5q-135 0 -214.5 -110t-79.5 -352zM1067 162q-41 -51 -91 -86t-106.5 -56.5t-116 -30.5t-116.5 -9q-139 0 -241.5 39.5t-170 112.5 t-100.5 175.5t-33 229.5q0 135 39 239.5t109.5 175t172 107.5t224.5 37q61 0 123.5 -9.5t118 -31t102.5 -55t82 -82.5q29 45 75 78.5t101 56t114.5 33t119.5 10.5q82 0 159.5 -19.5t139 -66.5t99.5 -125t38 -195q0 -35 -4 -73.5t-13 -81.5h-712q0 -90 23.5 -167t71.5 -132.5 t120.5 -87t171.5 -31.5q78 0 146.5 32.5t113.5 81.5l61 -71q-18 -37 -58 -70t-91 -57.5t-112.5 -38.5t-123.5 -14q-63 0 -129.5 12t-127 35.5t-107.5 57.5t-72 77zM1464 999q-63 0 -112 -18t-84 -61t-55.5 -114t-26.5 -175h495q2 18 2 37v34q0 137 -53 217t-166 80z" />
<glyph unicode="&#x178;" horiz-adv-x="1488" d="M979 1434h510v-115h-174l-436 -711v-493h186v-115h-602v115h186v491l-463 713h-186v115h618v-115h-172l371 -596l350 596h-188v115zM408 1630q0 59 38 89t95 30q59 0 98 -29.5t39 -89.5q0 -53 -39 -81.5t-98 -28.5q-57 0 -95 28.5t-38 81.5zM924 1630q0 59 39 89t94 30 q59 0 98 -29.5t39 -89.5q0 -53 -39 -81.5t-98 -28.5q-55 0 -94 28.5t-39 81.5z" />
<glyph unicode="&#x2c6;" horiz-adv-x="819" d="M188 1268l-65 35l256 401h59l258 -399l-65 -37l-232 229z" />
<glyph unicode="&#x2da;" horiz-adv-x="694" d="M123 1468q0 88 65.5 148.5t165.5 60.5q92 0 154.5 -54t62.5 -148q0 -43 -18 -80t-48 -63.5t-70 -42t-83 -15.5q-104 0 -166.5 52t-62.5 142zM246 1473q0 -53 30.5 -81t67.5 -28q45 0 75 24.5t30 77.5q0 59 -29 90t-74 31q-53 0 -76.5 -30.5t-23.5 -83.5z" />
<glyph unicode="&#x2dc;" horiz-adv-x="954" d="M831 1444q-74 -70 -136 -95.5t-113 -25.5q-41 0 -78 11.5t-72 24.5l-67.5 24.5t-67.5 11.5q-29 0 -60.5 -11.5t-68.5 -42.5l-45 66q86 74 152.5 100.5t119.5 26.5q41 0 77 -11.5t69 -23.5l65 -23q33 -11 68 -12q29 0 59.5 9.5t65.5 33.5z" />
<glyph unicode="&#x4d4;" horiz-adv-x="2103" d="M1931 1434v-336h-131v176l-41 45h-495v-531h346l30 31v86h132v-350h-132v86l-30 33h-346v-559h536l41 41v200h131v-356h-1118v115h180v403h-446l-264 -403h192v-115h-516v115h168l799 1204h-123v115h1087zM657 633h377v616h-4l-92 -190z" />
<glyph unicode="&#x4d5;" horiz-adv-x="1792" d="M502 117q49 0 88 15t68.5 38t50 51.5t34.5 54.5v244q-131 0 -214 -17.5t-130 -46t-64.5 -68.5t-17.5 -85q0 -92 49.5 -139t135.5 -47zM801 215q-16 -27 -43 -66.5t-70 -77.5t-105.5 -64.5t-148.5 -26.5q-160 0 -253 76.5t-93 205.5q0 100 41 166t124 103.5t205 54 t285 18.5q6 63 7 121q0 127 -43 193.5t-154 66.5q-41 0 -88 -4t-86 -25v-188h-184v227q74 39 174 70t235 31q123 0 193.5 -32t107.5 -83q57 61 149.5 88t192.5 27q82 0 161 -20.5t140.5 -67.5t99.5 -125t38 -193q0 -35 -4.5 -73.5t-12.5 -81.5h-711q0 -90 24 -164t71 -127.5 t118.5 -83t169.5 -29.5q80 0 149 26.5t109 61.5l56 -78q-53 -76 -150.5 -120t-226.5 -44q-174 0 -292.5 62.5t-184.5 175.5zM1239 999q-63 0 -111.5 -18t-83 -61t-55 -114t-26.5 -175h493q2 18 3 37.5t1 36.5q0 135 -54 214.5t-167 79.5z" />
<glyph unicode="&#x2000;" horiz-adv-x="935" />
<glyph unicode="&#x2001;" horiz-adv-x="1871" />
<glyph unicode="&#x2002;" horiz-adv-x="935" />
<glyph unicode="&#x2003;" horiz-adv-x="1871" />
<glyph unicode="&#x2004;" horiz-adv-x="622" />
<glyph unicode="&#x2005;" horiz-adv-x="466" />
<glyph unicode="&#x2006;" horiz-adv-x="311" />
<glyph unicode="&#x2007;" horiz-adv-x="311" />
<glyph unicode="&#x2008;" horiz-adv-x="233" />
<glyph unicode="&#x2009;" horiz-adv-x="372" />
<glyph unicode="&#x200a;" horiz-adv-x="102" />
<glyph unicode="&#x2010;" horiz-adv-x="972" d="M164 643h647v-131h-647v131z" />
<glyph unicode="&#x2011;" horiz-adv-x="972" d="M164 643h647v-131h-647v131z" />
<glyph unicode="&#x2012;" horiz-adv-x="972" d="M164 643h647v-131h-647v131z" />
<glyph unicode="&#x2013;" horiz-adv-x="1439" d="M166 643h1106v-131h-1106v131z" />
<glyph unicode="&#x2014;" horiz-adv-x="2035" d="M166 643h1704v-131h-1704v131z" />
<glyph unicode="&#x2018;" horiz-adv-x="671" d="M514 1653q-43 -12 -78 -39t-59.5 -60.5t-36.5 -72.5t-8 -76h119q16 -23 26 -51.5t10 -50.5q0 -35 -10 -67t-26 -56h-230q-33 76 -37 145q0 117 44 195.5t108.5 127t140.5 64.5z" />
<glyph unicode="&#x2019;" horiz-adv-x="671" d="M154 926q43 12 77.5 39t59 60.5t36 72.5t9.5 76h-117q-16 25 -26.5 50.5t-10.5 53.5q0 25 5.5 46.5t13.5 40t18 34.5h227q16 -41 26.5 -80t10.5 -79q0 -57 -19.5 -121t-57.5 -113q-31 -41 -85.5 -82t-130.5 -57z" />
<glyph unicode="&#x201a;" horiz-adv-x="671" d="M154 -248q43 12 77.5 39t59 60.5t36 72.5t9.5 76h-117q-16 25 -26.5 50.5t-10.5 53.5q0 25 5.5 46.5t13.5 40t18 34.5h227q16 -41 26.5 -80t10.5 -79q0 -57 -19.5 -121t-57.5 -113q-31 -41 -85.5 -82t-130.5 -57z" />
<glyph unicode="&#x201c;" horiz-adv-x="1095" d="M936 1653q-43 -12 -78 -39t-59.5 -60.5t-36.5 -72.5t-8 -76h119q16 -23 26 -51.5t10 -50.5q0 -35 -10 -67t-26 -56h-230q-33 76 -37 145q0 117 44 195.5t108.5 127t140.5 64.5zM514 1653q-43 -12 -78 -39t-59.5 -60.5t-36.5 -72.5t-8 -76h119q16 -23 26 -51.5t10 -50.5 q0 -35 -10 -67t-26 -56h-230q-33 76 -37 145q0 117 44 195.5t108.5 127t140.5 64.5z" />
<glyph unicode="&#x201d;" horiz-adv-x="1095" d="M576 926q43 12 77.5 39t59 60.5t36 72.5t9.5 76h-117q-16 25 -26.5 50.5t-10.5 53.5q0 25 5.5 46.5t13.5 40t18 34.5h227q16 -41 26.5 -80t10.5 -79q0 -57 -19.5 -121t-57.5 -113q-31 -41 -85.5 -82t-130.5 -57zM154 926q43 12 77.5 39t59 60.5t36 72.5t9.5 76h-117 q-16 25 -26.5 50.5t-10.5 53.5q0 25 5.5 46.5t13.5 40t18 34.5h227q16 -41 26.5 -80t10.5 -79q0 -57 -19.5 -121t-57.5 -113q-31 -41 -85.5 -82t-130.5 -57z" />
<glyph unicode="&#x201e;" horiz-adv-x="1095" d="M576 -248q43 12 77.5 39t59 60.5t36 72.5t9.5 76h-117q-16 25 -26.5 50.5t-10.5 53.5q0 25 5.5 46.5t13.5 40t18 34.5h227q16 -41 26.5 -80t10.5 -79q0 -57 -19.5 -121t-57.5 -113q-31 -41 -85.5 -82t-130.5 -57zM154 -248q43 12 77.5 39t59 60.5t36 72.5t9.5 76h-117 q-16 25 -26.5 50.5t-10.5 53.5q0 25 5.5 46.5t13.5 40t18 34.5h227q16 -41 26.5 -80t10.5 -79q0 -57 -19.5 -121t-57.5 -113q-31 -41 -85.5 -82t-130.5 -57z" />
<glyph unicode="&#x2022;" horiz-adv-x="1052" d="M201 637q0 63 25.5 117.5t69.5 92.5t103.5 59.5t126.5 21.5q68 0 127.5 -19.5t102.5 -57.5t68.5 -92t25.5 -122t-25.5 -122t-68.5 -91t-102.5 -56.5t-127.5 -19.5t-127 19.5t-103 56.5t-69.5 91t-25.5 122z" />
<glyph unicode="&#x2026;" horiz-adv-x="2041" d="M1561 119q0 63 43 100t114 37q72 0 117 -37t45 -100q0 -61 -45 -98t-117 -37t-114.5 37t-42.5 98zM862 119q0 63 43 100t115 37t117 -37t45 -100q0 -61 -45 -98t-117 -37t-115 37t-43 98zM164 119q0 63 43 100t115 37t116.5 -37t44.5 -100q0 -61 -45 -98t-116 -37 q-72 0 -115 37t-43 98z" />
<glyph unicode="&#x202f;" horiz-adv-x="372" />
<glyph unicode="&#x2039;" horiz-adv-x="647" d="M55 530l400 422l57 -41l-240 -366l254 -387l-53 -41z" />
<glyph unicode="&#x203a;" horiz-adv-x="647" d="M180 117l-59 43l256 375l-244 378l60 39l401 -420z" />
<glyph unicode="&#x2044;" horiz-adv-x="729" d="M991 1462l84 -78l-1345 -1404l-80 79z" />
<glyph unicode="&#x205f;" horiz-adv-x="466" />
<glyph unicode="&#x2081;" horiz-adv-x="983" d="M840 -205h-645v103h229v632l-203 -75l-45 92l248 108h186v-757h230v-103z" />
<glyph unicode="&#x2082;" horiz-adv-x="983" d="M293 313h-131v254q35 23 67.5 41.5t71.5 32.5t88 21.5t119 7.5q88 0 148.5 -19.5t97.5 -51.5t53 -75t16 -92q0 -68 -36.5 -136.5t-104.5 -134t-161 -126t-204 -111.5v-12l72 12h352v139h131v-268h-737v129q94 47 182.5 102.5t157 117t110.5 127t42 132.5q0 39 -8.5 69 t-30 51.5t-58 32.5t-94.5 11q-41 0 -76.5 -6t-66.5 -22v-226z" />
<glyph unicode="&#x2083;" horiz-adv-x="983" d="M473 -123q55 0 94 14.5t63.5 37t36 50t11.5 54.5q0 86 -54.5 123t-179.5 37h-77v65l299 295h-390v-193h-131v295h684v-102l-301 -268v-2l72 8q55 0 104.5 -15.5t87 -45t60 -74.5t22.5 -105q0 -133 -115.5 -201.5t-312.5 -68.5q-94 0 -182 32.5t-147 71.5v148h184v-109 q20 -12 61 -29.5t111 -17.5z" />
<glyph unicode="&#x2084;" horiz-adv-x="983" d="M887 -205h-492v103h183v141h-512v102l512 514h172v-514h194v-102h-194v-141h137v-103zM578 500l-367 -359h367v359z" />
<glyph unicode="&#x20ac;" d="M-47 901h160q23 145 84 249.5t153 172.5t209 99.5t250 31.5q76 0 133 -4t103.5 -13.5t84 -22.5t76.5 -30v-352h-131v238l-41 47q-27 10 -60.5 18t-99.5 8q-223 0 -359 -104t-173 -338h686l-35 -115h-665v-69v-38q0 -17 2 -36h620l-35 -115h-571q18 -100 60 -181t109 -139 t157 -90t204 -32q78 0 119 11.5t56 21.5l41 47v211h131v-314q-35 -25 -84.5 -40t-102.5 -25t-108.5 -14t-102.5 -4q-307 0 -486 135t-224 413h-195l35 115h147q-4 18 -4 38v42v32q0 15 4 31h-182z" />
<glyph unicode="&#x2122;" horiz-adv-x="2301" d="M719 666h-436v86h120v604h-194v-199h-103v277h795v-277h-102v199h-195v-604h115v-86zM1325 666h-334v86h113v579h-113v103h398l192 -353h6l207 353h373v-103h-113v-579h113v-86h-406v86h105v585h-13l-268 -446h-84l-264 446h-14v-585h102v-86z" />
<glyph unicode="&#xe000;" horiz-adv-x="1075" d="M0 1075h1075v-1075h-1075v1075z" />
<glyph unicode="&#xf408;" horiz-adv-x="888" d="M156 1559l-33 40l291 273h63l289 -266l-37 -45l-291 114z" />
<glyph unicode="&#xf40c;" horiz-adv-x="765" d="M123 1614q0 84 78 130t190 46q45 0 90 -10.5t81 -30.5t58.5 -52t22.5 -77q0 -41 -20.5 -71.5t-56.5 -53t-82 -34t-95 -11.5q-119 0 -192.5 43t-73.5 121zM276 1614q0 -35 30 -56.5t71 -21.5q59 0 85.5 20.5t26.5 55.5q0 53 -30.5 72.5t-73.5 19.5q-55 0 -82 -25.5 t-27 -64.5z" />
<glyph unicode="&#xf40d;" horiz-adv-x="978" d="M856 1726q-74 -78 -134 -108.5t-120 -30.5q-43 0 -81 13.5t-75 28.5l-71 29q-35 13 -72 13q-29 0 -63.5 -13t-71.5 -48l-45 73q88 86 155.5 117t127.5 31q43 0 79.5 -12.5t71.5 -27.5t68.5 -27.5t70.5 -12.5q29 0 63 10.5t68 38.5z" />
<glyph unicode="&#xf6c9;" horiz-adv-x="796" d="M422 1872l252 -68v-82l-524 -147l-27 49z" />
<glyph unicode="&#xf6cb;" horiz-adv-x="1032" d="M123 1630q0 59 38 89t95 30q59 0 98 -29.5t39 -89.5q0 -53 -39 -81.5t-98 -28.5q-57 0 -95 28.5t-38 81.5zM639 1630q0 59 39 89t94 30q59 0 98 -29.5t39 -89.5q0 -53 -39 -81.5t-98 -28.5q-55 0 -94 28.5t-39 81.5z" />
<glyph unicode="&#xf6ce;" horiz-adv-x="796" d="M674 1624l-27 -49l-524 147v82l252 68z" />
<glyph unicode="&#xfb01;" horiz-adv-x="1384" d="M1300 0h-518v102h152v871h-473v-871h170v-102h-537v102h152v871h-174v102h174v33q0 133 46 217t120.5 131t170 63.5t193.5 16.5q45 0 101.5 -10t108.5 -25.5t96 -33t67 -33.5v-172h-215v143q-35 10 -70 15t-71 5q-61 0 -122 -15t-107 -51t-74.5 -94.5t-28.5 -144.5v-45 h688v-973h151v-102z" />
<glyph unicode="&#xfb02;" horiz-adv-x="1392" d="M942 1413q-80 12 -151 12q-154 0 -242 -63.5t-88 -222.5v-64h262v-102h-262v-871h186v-102h-553v102h152v871h-174v102h174v53q0 125 40 205t110.5 125t169 61.5t212.5 16.5h379v-1434h152v-102h-518v102h151v1311z" />
<glyph unicode="&#xfb03;" horiz-adv-x="2271" d="M2187 0h-518v102h152v871h-152v102h367v-973h151v-102zM1776 1407q0 59 42 94t107 35q70 0 110 -35t40 -94t-40 -94t-110 -35q-66 0 -107.5 35t-41.5 94zM1499 1536q72 0 128 -12.5t85 -22.5v-198h-197v131q-68 0 -118 -12.5t-82.5 -47.5t-49 -95t-16.5 -159v-45h262 v-131h-262v-842h219v-102h-586v102h152v842h-174v131h174v33q0 207 124 317.5t341 110.5zM711 1536q72 0 128 -12.5t85 -22.5v-198h-197v131q-68 0 -118 -12.5t-82.5 -47.5t-49 -95t-16.5 -159v-45h262v-131h-262v-842h219v-102h-586v102h152v842h-174v131h174v33 q0 207 124 317.5t341 110.5z" />
<glyph unicode="&#xfb04;" horiz-adv-x="2271" d="M2187 0h-518v102h152v1332h-174v102h389v-1434h151v-102zM1499 1536q72 0 128 -12.5t85 -22.5v-198h-197v131q-68 0 -118 -12.5t-82.5 -47.5t-49 -95t-16.5 -159v-45h262v-131h-262v-842h219v-102h-586v102h152v842h-174v131h174v33q0 207 124 317.5t341 110.5zM711 1536 q72 0 128 -12.5t85 -22.5v-198h-197v131q-68 0 -118 -12.5t-82.5 -47.5t-49 -95t-16.5 -159v-45h262v-131h-262v-842h219v-102h-586v102h152v842h-174v131h174v33q0 207 124 317.5t341 110.5z" />
</font>
</defs>
</svg>
